Еквілібріум / Equilibrium (2002) mini 1080p H.265 [Open Matte] 4xUkr/Eng | Sub Ukr/Eng

Нові коментарі

Нова тема   Відповісти
Автор Повідомлення
Anonymous 







2018-08-16 12:41  
Еквілібріум / Equilibrium (2002) mini 1080p H.265 [Open Matte] 4xUkr/Eng | Sub Ukr/Eng

Еквілібріум / Equilibrium (2002) mini 1080p H.265 [Open Matte] 4xUkr/Eng | Sub Ukr/Eng


Жанр: бойовик, драма, фантастика
Країна: США



Кінокомпанія: Dimension Films, Blue Tulip Productions
Режисер: Курт Віммер
Актори: Крістіан Бейл, Шон Бiн, Емiлi Вотсон, Тай Дiґґс, Анґус Макфейден, Вiльям Фiчнер, Шон Пертвi, Метью Гарбор, Домiнiк Парселл

Сюжет:
Світ після Третьої світової війни. Світ, в якому війна – не більше ніж далекий спогад. Світ, де люди позбавлені можливості виражати якісь емоції, тому, що вони...заборонені. Це та ціна, яку людство платить за усунення зі свого життя війни. Тепер книги, мистецтво і музика знаходяться поза законом. А будь-яке почуття - вже злочин, що карається смертю.


Тривалість: 01:46:50
Якість:
Відео:
кодек: H.265 (HEVC)
розмір кадру: 1920 x 1080
бітрейт: 5 495 кб/с
бітова глибина: 10 біт
Увага! Перед завантаженням переконайтесь, що ваш пристрій відтворення (та/або ПЗ) підтримує H.265 (HEVC)

Аудіо # 1:
мова: українська
переклад: багатоголосий закадровий
кодек: 2.0
бітрейт: 192 кб/с

Аудіо # 2:
мова: українська
переклад: двоголосий закадровий
кодек: 5.1
бітрейт: 448 кб/с

Аудіо # 3:
мова: українська
переклад: багатоголосий закадровий
кодек: 5.1
бітрейт: 384 кб/с

Аудіо # 4:
мова: українська
переклад: двоголосий закадровий
кодек: 2.0
бітрейт: 192 кб/с

Аудіо # 5:
мова: англійська
переклад: оригінал
кодек: 5.1
бітрейт: 384 кб/с

Субтитри # 1:
мова: українська
тип: програмні (м'які)
формат: *.srt

Субтитри # 2:
мова: англійська
тип: програмні (м'які)
формат: *.srt
Info
Код:
General
Unique ID                                : 104176643177645979884406089805877281619 (0x4E5FB110A3DB64A30668EE2912690353)
Complete name                            : G:\Video\Films\Equilibrium (2002) OM 1080p H.265 [4xUKR_ENG].
Format                                   :
Format version                           : Version 4 / Version 2
File size                                : 5.30 GiB
Duration                                 : 1 h 46 min
Overall bit rate                         : 7 098 kb/s
Movie name                               : Equilibrium (2002) Open Matte
Encoded date                             : UTC 2018-08-15 22:05:29
Writing application                      : v20.0.0 ('I Am The Sun') 32-bit
Writing library                          : libebml v1.3.5 + v1.4.8
Cover                                    : Yes
Attachments                              : Cover.jpg

Video
ID                                       : 1
Format                                   : HEVC
Format/Info                              : High Efficiency Video Coding
Format profile                           : Main [email protected]@Main
Codec ID                                 : V_MPEGH/ISO/HEVC
Duration                                 : 1 h 46 min
Bit rate                                 : 5 495 kb/s
Width                                    : 1 920 pixels
Height                                   : 1 080 pixels
Display aspect ratio                     : 16:9
Frame rate mode                          : Constant
Frame rate                               : 23.976 (24000/1001) FPS
Color space                              : YUV
Chroma subsampling                       : 4:2:0
Bit depth                                : 10 bits
Bits/(Pixel*Frame)                       : 0.111
Stream size                              : 4.10 GiB (77%)
Writing library                          : x265 2.8+19-bcdc610cf5f0:[Windows][GCC 7.3.0][64 bit] 10bit
Encoding settings                        : cpuid=1049583 / frame-threads=5 / numa-pools=4 / wpp / no-pmode / no-pme / no-psnr / no-ssim / log-level=3 / input-csp=1 / input-res=1920x1080 / interlace=0 / total-frames=0 / level-idc=51 / high-tier=1 / uhd-bd=0 / ref=5 / allow-non-conformance / no-repeat-headers / annexb / no-aud / no-hrd / info / hash=0 / no-temporal-layers / open-gop / min-keyint=24 / keyint=240 / gop-lookahead=0 / bframes=8 / b-adapt=2 / b-pyramid / bframe-bias=0 / rc-lookahead=20 / lookahead-slices=6 / scenecut=40 / radl=0 / no-intra-refresh / ctu=64 / min-cu-size=8 / no-rect / no-amp / max-tu-size=32 / tu-inter-depth=1 / tu-intra-depth=1 / limit-tu=0 / rdoq-level=0 / dynamic-rd=0.00 / no-ssim-rd / signhide / no-tskip / nr-intra=0 / nr-inter=0 / no-constrained-intra / strong-intra-smoothing / max-merge=2 / limit-refs=3 / no-limit-modes / me=3 / subme=7 / merange=57 / temporal-mvp / weightp / no-weightb / no-analyze-src-pics / deblock=-3:-3 / sao / no-sao-non-deblock / rd=3 / no-early-skip / rskip / no-fast-intra / no-tskip-fast / no-cu-lossless / no-b-intra / no-splitrd-skip / rdpenalty=0 / psy-rd=2.00 / psy-rdoq=0.00 / no-rd-refine / no-lossless / cbqpoffs=0 / crqpoffs=0 / rc=abr / bitrate=5500 / qcomp=0.60 / qpstep=4 / stats-write=0 / stats-read=1 / cplxblur=20.0 / qblur=0.5 / ipratio=1.40 / pbratio=1.30 / aq-mode=1 / aq-strength=1.00 / cutree / zone-count=0 / no-strict-cbr / qg-size=32 / no-rc-grain / qpmax=69 / qpmin=0 / no-const-vbv / sar=1 / overscan=0 / videoformat=5 / range=0 / colorprim=1 / transfer=1 / colormatrix=1 / chromaloc=0 / display-window=0 / max-cll=0,0 / min-luma=0 / max-luma=1023 / log2-max-poc-lsb=8 / vui-timing-info / vui-hrd-info / slices=1 / no-opt-qp-pps / no-opt-ref-list-length-pps / no-multi-pass-opt-rps / scenecut-bias=0.05 / no-opt-cu-delta-qp / no-aq-motion / no-hdr / no-hdr-opt / no-dhdr10-opt / no-idr-recovery-sei / analysis-reuse-level=5 / scale-factor=0 / refine-intra=0 / refine-inter=0 / refine-mv=0 / no-limit-sao / ctu-info=0 / no-lowpass-dct / refine-mv-type=0 / copy-pic=1 / max-ausize-factor=1.0 / no-dynamic-refine / no-single-sei
Language                                 : English
Default                                  : Yes
Forced                                   : No
Color range                              : Limited
Color primaries                          : BT.709
Transfer characteristics                 : BT.709
Matrix coefficients                      : BT.709

Audio #1
ID                                       : 2
Format                                   : AC-3
Format/Info                              : Audio Coding 3
Codec ID                                 : A_AC3
Duration                                 : 1 h 46 min
Bit rate mode                            : Constant
Bit rate                                 : 192 kb/s
Channel(s)                               : 2 channels
Channel positions                        : Front: L R
Sampling rate                            : 48.0 kHz
Frame rate                               : 31.250 FPS (1536 SPF)
Bit depth                                : 16 bits
Compression mode                         : Lossy
Delay relative to video                  : 1 s 500 ms
Stream size                              : 147 MiB (3%)
Title                                    : AMC
Language                                 : Ukrainian
Service kind                             : Complete Main
Default                                  : Yes
Forced                                   : No

Audio #2
ID                                       : 3
Format                                   : AC-3
Format/Info                              : Audio Coding 3
Codec ID                                 : A_AC3
Duration                                 : 1 h 46 min
Bit rate mode                            : Constant
Bit rate                                 : 448 kb/s
Channel(s)                               : 6 channels
Channel positions                        : Front: L C R, Side: L R, LFE
Sampling rate                            : 48.0 kHz
Frame rate                               : 31.250 FPS (1536 SPF)
Bit depth                                : 16 bits
Compression mode                         : Lossy
Stream size                              : 342 MiB (6%)
Title                                    : 2+2
Language                                 : Ukrainian
Service kind                             : Complete Main
Default                                  : No
Forced                                   : No

Audio #3
ID                                       : 4
Format                                   : AC-3
Format/Info                              : Audio Coding 3
Codec ID                                 : A_AC3
Duration                                 : 1 h 46 min
Bit rate mode                            : Constant
Bit rate                                 : 384 kb/s
Channel(s)                               : 6 channels
Channel positions                        : Front: L C R, Side: L R, LFE
Sampling rate                            : 48.0 kHz
Frame rate                               : 31.250 FPS (1536 SPF)
Bit depth                                : 16 bits
Compression mode                         : Lossy
Stream size                              : 293 MiB (5%)
Title                                    : Novy
Language                                 : Ukrainian
Service kind                             : Complete Main
Default                                  : No
Forced                                   : No

Audio #4
ID                                       : 5
Format                                   : AC-3
Format/Info                              : Audio Coding 3
Codec ID                                 : A_AC3
Duration                                 : 1 h 46 min
Bit rate mode                            : Constant
Bit rate                                 : 192 kb/s
Channel(s)                               : 2 channels
Channel positions                        : Front: L R
Sampling rate                            : 48.0 kHz
Frame rate                               : 31.250 FPS (1536 SPF)
Bit depth                                : 16 bits
Compression mode                         : Lossy
Delay relative to video                  : 1 s 500 ms
Stream size                              : 147 MiB (3%)
Title                                    : 1+1
Language                                 : Ukrainian
Service kind                             : Complete Main
Default                                  : No
Forced                                   : No

Audio #5
ID                                       : 6
Format                                   : AC-3
Format/Info                              : Audio Coding 3
Codec ID                                 : A_AC3
Duration                                 : 1 h 46 min
Bit rate mode                            : Constant
Bit rate                                 : 384 kb/s
Channel(s)                               : 6 channels
Channel positions                        : Front: L C R, Side: L R, LFE
Sampling rate                            : 48.0 kHz
Frame rate                               : 31.250 FPS (1536 SPF)
Bit depth                                : 16 bits
Compression mode                         : Lossy
Stream size                              : 293 MiB (5%)
Title                                    : Original
Language                                 : English
Service kind                             : Complete Main
Default                                  : No
Forced                                   : No

Text #1
ID                                       : 7
Format                                   : UTF-8
Codec ID                                 : S_TEXT/UTF8
Codec ID/Info                            : UTF-8 Plain Text
Duration                                 : 1 h 38 min
Bit rate                                 : 56 b/s
Count of elements                        : 969
Stream size                              : 40.6 KiB (0%)
Language                                 : Ukrainian
Default                                  : Yes
Forced                                   : No

Text #2
ID                                       : 8
Format                                   : UTF-8
Codec ID                                 : S_TEXT/UTF8
Codec ID/Info                            : UTF-8 Plain Text
Duration                                 : 1 h 38 min
Bit rate                                 : 34 b/s
Count of elements                        : 723
Stream size                              : 24.7 KiB (0%)
Language                                 : English
Default                                  : No
Forced                                   : No

Menu
00:00:00.000                             : :Людська жорстокість
00:07:33.161                             : :Бездушне суспільство
00:11:42.285                             : :Заблудший Клерик
00:15:02.443                             : :Висока ціна
00:22:07.326                             : :Відсутність дози
00:25:27.234                             : :Існування і мета
00:30:56.980                             : :Пробудження емоцій
00:36:50.156                             : :Сльози і жалість
00:44:50.563                             : :Батько, що має сумнів?
00:47:25.678                             : :Велика помилка
00:56:29.011                             : :"Він емоційний злочинець"
01:02:55.230                             : :Запитання до Мері
01:06:12.635                             : :Контакт з Опором
01:14:44.939                             : :Спалювання
01:23:32.591                             : :Нічого приховувати
01:28:56.998                             : :"Не без несподіванок"
01:34:23.157                             : :Розплата
01:40:16.552                             : :Фінальні титри
Скріншоти



Джерело:
Особиста оцінка: 0 - не дивився
ЗАЛИШАЙТЕСЬ ЯКОМОГА ДОВШЕ НА РОЗДАЧІ!
ЗАВАНТАЖИВ САМ - ДАЙ ЗАВАНТАЖИТИ ІНШИМ


Срібний реліз (на рейтинг впливає 50% завантаженого)
 Трекер:    Зареєстрований   

Завантажити / скачати фільм українською



відео для новачків



 Зареєстрований:   2018-08-17 21:39
 Розмір:   5.3 GB 
 Оцінка фільму:   8.6/10 (Голосів: 22)
   
Інші релізи
serpantin2012 
Новенький


З нами з: 27.12.14
Востаннє: 23.02.20
Повідомлень: 8

2018-08-16 15:02  
Мене непокоїть лише одне: як так сталось, що цей фільм свого часу провалився у прокаті. Та ще й як!!!
DukeNukem 
VIP


З нами з: 15.01.09
Востаннє: 24.02.20
Повідомлень: 488

2018-08-16 21:03  

Anonymous 







2018-08-17 11:11  
DukeNukem
Дякую!

Silver Warden 
VIP


З нами з: 02.01.18
Востаннє: 24.02.20
Повідомлень: 270

2018-08-17 12:07  
serpantin2012
Через критиків та недалекість глядацьких мас. Через деяку схожість візуальної стилістики до Матриці, більшість людей просто не дали фільму шанс, назвавши його клоном Матриці. Ніхто навіть не поцікавився, що це, фактично, адаптація Фаренгейту, що тут шикарна музика, цікаві теми та дуже добра акторська гра.

Anonymous 







2018-08-17 21:41  
Виправив невеличкий розсинхрон.
Anonymous 







2018-08-20 23:37  
Знову всі повтікали з роздачі(
equator 
Новенький


З нами з: 17.12.13
Востаннє: 24.02.20
Повідомлень: 6

2018-10-31 18:12  
дайте скачати. обіцяю стояти на роздачі щонайменше 3 роки Happy

дякую всім, хто відгукнувся

rudder1992 
Свій


З нами з: 25.02.17
Востаннє: 24.02.20
Повідомлень: 114

2018-12-30 18:23  
serpantin2012
Фільм доволі хороший.
Тільки нащо було чорні полоси на екрані вирізати?! Якщо фільм має співвідношення 2: 39: 1 то нафіга його робити 1: 85 ???? Кому подобається на " весь екран " дивитись - хай у плеєрі налаштують!!!
Для чого було фільм різати!?

omm 
Відео Гуртом - фільмокрай
Відео Гуртом - фільмокрай


З нами з: 12.06.12
Востаннє: 24.02.20
Повідомлень: 2348

2019-05-25 23:03  
Непоганий фільм.
Перша половина нуднувата, але далі пішла жара )
Така собі суміш Орвелла, "Судді Дредда", "Матриці" і ще багато чого.

Якість відмінна навіть для великих діагоналей. Дивився з озвучкою плюсів - місцями невеликий розсинхрон

Ваш часовий пояс: GMT + 2 Години

Нова тема   Відповісти