Лукас / Lucas (1986) 720p Ukr/Eng | Sub Eng

Нові коментарі

Нова тема   Відповісти
Автор Повідомлення
Anonymous 







2018-08-16 05:19  
Лукас / Lucas (1986) 720p Ukr/Eng | Sub Eng

Лукас / Lucas (1986) 720p Ukr/Eng | Sub Eng


Жанр: комедія, драма, романтичний
Країна: США



Кінокомпанія: Century Fox
Режисер: Девід Зельтцер
Актори: Корі Хейм, Керрі Грін, Чарлі Шин, Вайнона Райдер, Джеремі Пайвен, Кортні Торн-Сміт

Сюжет:
Чотирнадцятилітній Лукас більше цікавиться таємницями науки і поведінкою комах, ніж футболом і вечірками з дівчатами. Але під час літніх канікул він закохується в симпатичну 16-ню дівчину, яка щойно переїхала з іншого міста...


Тривалість: 01:39:37
Якість: 720p
Відео:
кодек:
розмір кадру: 1280х696
бітрейт: 5640 кб/с

Аудіо # 1:
мова: українська
переклад: двоголосий закадровий
кодек: 2.0
бітрейт: 192 кб/с

Аудіо # 2:
мова: англійська
переклад: оригінал
кодек: 5.1
бітрейт: 640 кб/с

Субтитри:
мова: англійська
тип: програмні (м'які)
формат: *.srt
Info
General
Unique ID : 240079453077263095289880088961089106508 (0xB49D9EEADF365A279760C2884CB9724C)
Format :
Format version : Version 4 / Version 2
File size : 4.50 GiB
Duration : 1 h 39 min
Overall bit rate : 6 471 kb/s
Encoded date : UTC 2018-08-16 02:09:02
Writing application : v6.1.0 ('Old Devil') built on Mar 4 2013 09:10:42
Writing library : libebml v1.3.0 + v1.4.0

Video
ID : 1
Format : AVC
Format/Info : Advanced Video Codec
Format profile : [email protected]
Format settings : CABAC / 5 Ref Frames
Format settings, CABAC : Yes
Format settings, ReFrames : 5 frames
Codec ID : V_MPEG4/ISO/AVC
Duration : 1 h 39 min
Bit rate : 5 640 kb/s
Width : 1 280 pixels
Height : 696 pixels
Display aspect ratio : 1.85:1
Frame rate mode : Constant
Frame rate : 23.976 (24000/1001) FPS
Color space : YUV
Chroma subsampling : 4:2:0
Bit depth : 8 bits
Scan type : Progressive
Bits/(Pixel*Frame) : 0.264
Stream size : 3.83 GiB (85%)
Writing library : core 135 r2345kMod f0c1c53
Encoding settings : cabac=1 / ref=5 / deblock=1:-3:-3 / analyse=0x3:0x113 / me=umh / subme=8 / psy=1 / fade_compensate=0.00 / psy_rd=1.00:0.00 / mixed_ref=1 / me_range=16 / chroma_me=1 / trellis=1 / 8x8dct=1 / cqm=0 / deadzone=21,11 / fast_pskip=1 / chroma_qp_offset=-2 / threads=12 / lookahead_threads=2 / sliced_threads=0 / nr=0 / decimate=1 / interlaced=0 / bluray_compat=0 / constrained_intra=0 / bframes=3 / b_pyramid=2 / b_adapt=2 / b_bias=0 / direct=3 / weightb=1 / open_gop=0 / weightp=2 / keyint=240 / keyint_min=24 / scenecut=40 / intra_refresh=0 / rc_lookahead=50 / rc=2pass / mbtree=1 / bitrate=5640 / ratetol=1.0 / qcomp=0.60 / qpmin=0 / qpmax=69 / qpstep=4 / cplxblur=20.0 / qblur=0.5 / ip_ratio=1.40 / aq=1:1.00
Language : English
Default : Yes
Forced : No

Audio #1
ID : 2
Format : AC-3
Format/Info : Audio Coding 3
Codec ID : A_AC3
Duration : 1 h 39 min
Bit rate mode : Constant
Bit rate : 192 kb/s
Channel(s) : 2 channels
Channel positions : Front: L R
Sampling rate : 48.0 kHz
Frame rate : 31.250 FPS (1536 SPF)
Bit depth : 16 bits
Compression mode : Lossy
Stream size : 137 MiB (3%)
Title : UKR (1+1)
Language : Ukrainian
Service kind : Complete Main
Default : Yes
Forced : Yes

Audio #2
ID : 3
Format : AC-3
Format/Info : Audio Coding 3
Codec ID : A_AC3
Duration : 1 h 39 min
Bit rate mode : Constant
Bit rate : 640 kb/s
Channel(s) : 6 channels
Channel positions : Front: L C R, Side: L R, LFE
Sampling rate : 48.0 kHz
Frame rate : 31.250 FPS (1536 SPF)
Bit depth : 16 bits
Compression mode : Lossy
Stream size : 456 MiB (10%)
Title : ENG
Language : English
Service kind : Complete Main
Default : No
Forced : No

Text
ID : 4
Format : UTF-8
Codec ID : S_TEXT/UTF8
Codec ID/Info : UTF-8 Plain Text
Title : ENG
Language : English
Default : Yes
Forced : No

Menu
00:00:00.000 : en:00:00:00.000
00:10:11.319 : en:00:10:11.319
00:21:57.983 : en:00:21:57.983
00:33:09.196 : en:00:33:09.196
00:41:57.181 : en:00:41:57.181
00:49:57.077 : en:00:49:57.077
01:01:37.402 : en:01:01:37.402
01:10:30.309 : en:01:10:30.309
01:20:43.964 : en:01:20:43.964
01:29:49.509 : en:01:29:49.509
01:37:20.418 : en:01:37:20.418
Скріншоти








За українську доріжку подяка п.: xslim, Arsenfpu
Особиста подяка пану denixx за надану матеріальну допомогу на підтримку цього і майбутніх релізів.
Джерело:


Срібний реліз (на рейтинг впливає 50% завантаженого)
 Трекер:    Зареєстрований   

Завантажити / скачати фільм українською



відео для новачків



 Зареєстрований:   2018-08-16 05:19
 Розмір:   4.5 GB 
 Оцінка фільму:   9.1/10 (Голосів: 10)
   
Інші релізи
   Лукас / Lucas (1986) Arsenfpu  3 / 0   1.46 GB   2016-11-23 20:18 
rudder1992 
Поважний учасник


З нами з: 26.02.17
Востаннє: 23.09.20
Повідомлень: 182

2020-03-20 13:59  
Рейтнг на imd явно занижений! Можливо , фільм не дотягує до шедевру(у своєму жанрі), проте є досить якісним фільмом і у великій мірі може бути актуальним та цікавим до сьогоднішнього часу.
Моя особиста оцінка 9 із 10!

rudder1992 
Поважний учасник


З нами з: 26.02.17
Востаннє: 23.09.20
Повідомлень: 182

2020-03-20 17:32  
будь ласка станьте хтось на роздачу!)...
Вже кілька годин стоїть по нулях...

rudder1992 
Поважний учасник


З нами з: 26.02.17
Востаннє: 23.09.20
Повідомлень: 182

2020-03-21 11:45  
дуже дякую за завантаження!
Я на роздачі!)

Ваш часовий пояс: GMT + 2 Години

Нова тема   Відповісти