Ти квач! / Tag (2018) 1080p Ukr/Eng | Sub Eng

Нові коментарі

Нова тема   Відповісти
Автор Повідомлення
staf777 
Попереджень: 1
Попереджень: 1 


З нами з: 16.11.16
Востаннє: 16.12.18
Повідомлень: 1919

2018-08-15 21:42  
Ти квач! / Tag (2018) 1080p Ukr/Eng | Sub Eng



Жанр: комедія
Країна: США



Кінокомпанія: Broken Road Productions, New Line Cinema
Режисер: Джефф Томсіч
Актори: Ед Гелмс, Джеремі Реннер, Джон Гемм, Джейк Джонсон, Геннібал Бересс, Аннабелль Волліс, Айла Фішер, Рашіда Джонс, Ліл Релл, Нора Данн

Сюжет:
Щороку п’ятеро університетських друзів збираються, щоб грати в «квача без правил», ризикуючи своїми шиями, роботою та стосунками. Щоб перемогти, збивши супротивника з ніг з криком «Ти квач!». Цього року гра співпадає з весіллям одного з непереможних гравців, тож він може стати легкою мішенню. Але хлопець знає, що друзі йдуть по його душу і…він готовий. Історія базується на реальних подіях, і показує, як далеко деякі чоловіки можуть зайти заради перемоги.


Тривалість: 01:40:33
Якість:
Відео:
кодек:
розмір кадру: 1920x804
бітрейт: 10,6 Mб/с

Аудіо # 1:
мова: українська
переклад: професійний дубльований
кодек: 2.0
бітрейт: 192 кб/с

Аудіо # 2:
мова: англійська
переклад: оригінал
кодек: 5.1
бітрейт: 1509 кб/с

Субтитри (Forced):
мова: українська
тип: програмні (м'які)
формат: *.srt

Субтитри: (повні, SDH, SDH кольорові)
мова: англійська
тип: програмні (м'які)
формат: *.srt
Info
General
Unique ID : 149532624591540900001751156134738578201 (0x707EEF998694BB3BD5BD48CBDBD6CB19)
Complete name : S:\Tag (2018) 1080p [UKR_ENG] [Hurtom].
Format :
Format version : Version 4 / Version 2
File size : 8.66 GiB
Duration : 1 h 40 min
Overall bit rate : 12.3 Mb/s
Movie name : Tag (2018) 1080p [UKR_ENG] [Hurtom]
Encoded date : UTC 2018-09-10 09:12:42
Writing application : v24.0.0 ('Beyond The Pale') 64-bit
Writing library : libebml v1.3.6 + v1.4.9
Cover : Yes
Attachments : cover

Video
ID : 1
Format : AVC
Format/Info : Advanced Video Codec
Format profile : [email protected]
Format settings : CABAC / 5 Ref Frames
Format settings, CABAC : Yes
Format settings, ReFrames : 5 frames
Codec ID : V_MPEG4/ISO/AVC
Duration : 1 h 40 min
Bit rate : 10.6 Mb/s
Width : 1 920 pixels
Height : 804 pixels
Display aspect ratio : 2.40:1
Frame rate mode : Constant
Frame rate : 23.976 (24000/1001) FPS
Color space : YUV
Chroma subsampling : 4:2:0
Bit depth : 8 bits
Scan type : Progressive
Bits/(Pixel*Frame) : 0.287
Stream size : 7.47 GiB (86%)
Writing library : core 142 r2431+42 c69a006 tMod [[email protected]:2:0 X86_64]
Encoding settings : cabac=1 / ref=5 / deblock=1:-3:-3 / analyse=0x3:0x113 / me=umh / subme=10 / psy=1 / fade_compensate=0.00 / psy_rd=1.00:0.05 / mixed_ref=1 / me_range=48 / chroma_me=1 / trellis=2 / 8x8dct=1 / cqm=0 / deadzone=21,11 / fast_pskip=0 / chroma_qp_offset=-2 / threads=48 / lookahead_threads=6 / sliced_threads=0 / nr=0 / decimate=1 / interlaced=0 / bluray_compat=0 / constrained_intra=0 / fgo=0 / bframes=8 / b_pyramid=2 / b_adapt=2 / b_bias=0 / direct=3 / weightb=1 / open_gop=0 / weightp=2 / keyint=250 / keyint_min=23 / scenecut=40 / intra_refresh=0 / rc_lookahead=40 / rc=crf / mbtree=0 / crf=16.6000 / qcomp=0.60 / qpmin=0:0:0 / qpmax=69:69:69 / qpstep=4 / vbv_maxrate=40000 / vbv_bufsize=30000 / crf_max=0.0 / nal_hrd=none / filler=0 / ip_ratio=1.40 / pb_ratio=1.30 / aq=3:0.80 / aq-sensitivity=10.00 / aq-factor=1.00:1.00:1.00 / aq2=0 / aq3=0
Language : English
Default : Yes
Forced : No
Color range : Limited
Matrix coefficients : BT.709

Audio #1
ID : 2
Format : AC-3
Format/Info : Audio Coding 3
Codec ID : A_AC3
Duration : 1 h 40 min
Bit rate mode : Constant
Bit rate : 192 kb/s
Channel(s) : 2 channels
Channel positions : Front: L R
Sampling rate : 48.0 kHz
Frame rate : 31.250 FPS (1536 SPF)
Bit depth : 16 bits
Compression mode : Lossy
Stream size : 138 MiB (2%)
Title : 2.0 @ 192 kbps
Language : Ukrainian
Service kind : Complete Main
Default : Yes
Forced : Yes

Audio #2
ID : 3
Format :
Format/Info : Digital Theater Systems
Codec ID : A_DTS
Duration : 1 h 40 min
Bit rate mode : Constant
Bit rate : 1 509 kb/s
Channel(s) : 6 channels
Channel positions : Front: L C R, Side: L R, LFE
Sampling rate : 48.0 kHz
Frame rate : 93.750 FPS (512 SPF)
Bit depth : 24 bits
Compression mode : Lossy
Delay relative to video : 11 ms
Stream size : 1.06 GiB (12%)
Language : English
Default : No
Forced : No

Text #1
ID : 4
Format : UTF-8
Codec ID : S_TEXT/UTF8
Codec ID/Info : UTF-8 Plain Text
Duration : 1 h 35 min
Bit rate : 1 b/s
Count of elements : 17
Stream size : 768 Bytes (0%)
Title : Forced
Language : Ukrainian
Default : Yes
Forced : Yes

Text #2
ID : 5
Format : UTF-8
Codec ID : S_TEXT/UTF8
Codec ID/Info : UTF-8 Plain Text
Duration : 1 h 39 min
Bit rate : 91 b/s
Count of elements : 1965
Stream size : 66.9 KiB (0%)
Language : English
Default : No
Forced : No

Text #3
ID : 6
Format : UTF-8
Codec ID : S_TEXT/UTF8
Codec ID/Info : UTF-8 Plain Text
Duration : 1 h 40 min
Bit rate : 99 b/s
Count of elements : 2143
Stream size : 73.0 KiB (0%)
Title : SDH
Language : English
Default : No
Forced : No

Text #4
ID : 7
Format : UTF-8
Codec ID : S_TEXT/UTF8
Codec ID/Info : UTF-8 Plain Text
Duration : 1 h 40 min
Bit rate : 117 b/s
Count of elements : 2143
Stream size : 86.2 KiB (0%)
Title : SDH Colored
Language : English
Default : No
Forced : No

Menu
00:00:00.000 : en:Chapter 01
00:09:24.230 : en:Chapter 02
00:17:04.481 : en:Chapter 03
00:28:18.863 : en:Chapter 04
00:36:56.214 : en:Chapter 05
00:46:16.398 : en:Chapter 06
00:56:28.259 : en:Chapter 07
01:06:09.465 : en:Chapter 08
01:18:02.719 : en:Chapter 09
01:26:30.101 : en:Chapter 10
01:35:55.958 : en:Chapter 11
01:40:33.652 : en:Chapter 12
Скріншоти





Подяка пану Hanway за синхронізацію.
За допомогу в створені реліза дякую пану 11FrYkT
Джерело: & інше
Особиста оцінка: 0 - не дивився


 Трекер:    Зареєстрований   

Завантажити / скачати фільм українською



відео для новачків



 Зареєстрований:   2018-09-10 11:46
 Розмір:   8.66 GB 
 Оцінка фільму:   8/10 (Голосів: 50)
   
Інші релізи
   Ти квач! / Tag (2018) AVC Ukr/Eng | Sub Eng uafilm.tv  35 / 4   1.66 GB   2018-10-03 23:32 
   Ти квач! / Tag (2018) Ukr/Eng antik_2008  37 / 0   1.55 GB   2018-09-16 21:12 
   Ти квач! / Tag (2018) 1080p H.265 Ukr/Eng | Sub Eng -Star-Lord-  10 / 0   3.87 GB   2018-09-10 09:55 
   Ти квач! / Tag (2018) 720p Ukr/Eng | Sub Eng 11FrYkT  33 / 1   3.56 GB   2018-09-08 17:21 
   Ти квач! / Tag (2018) Remux 1080p Ukr/Eng | Sub Eng IronBee  8 / 0   26.59 GB   2018-09-03 19:05 
bot 
робот


З нами з: 30.09.07
Востаннє: 26.05.05
Повідомлень: 20348

2018-08-15 22:49  
Тему перенесено з Анонси релізів до форуму Фільми в HD


staf777

Estranded 
VIP


З нами з: 09.02.14
Востаннє: 16.12.18
Повідомлень: 1235

2018-08-15 22:53  
Очікував більшого
Найкраще те, що фільм не затягнутий. Події розгортаються швидко і це плюс. Бракує смішних моментів, хоча історія доволі цікава.
5/10 - на один раз піде!

kiboal 
Свій


З нами з: 25.12.14
Востаннє: 16.12.18
Повідомлень: 109

2018-08-16 21:43  
ну блін не 5 .... це тверда 8 , один раз глянуть можна всеж ідея оригінальна. Глянуть після роботи можна качайте ! Тільки там ньюанс по звуку , но терпимо.
amicus15 
Частий відвідувач


З нами з: 03.01.17
Востаннє: 09.12.18
Повідомлень: 25

2018-08-26 14:17  
kiboal написано:
Тільки там ньюанс по звуку , но терпимо.

НАскільки терпимо? чи наскільки погано? Не дратує?

crendel 
Новенький


З нами з: 21.02.15
Востаннє: 15.12.18
Повідомлень: 1

2018-09-09 21:58  
Класний фільм.
staf777 
Попереджень: 1
Попереджень: 1 


З нами з: 16.11.16
Востаннє: 16.12.18
Повідомлень: 1919

2018-09-10 11:49  
Замінив відео на краще та доріжку з 
VitNi 
Свій


З нами з: 05.05.12
Востаннє: 15.12.18
Повідомлень: 107

2018-09-10 13:23  
така фігня - не додивився...
вимкнув після того, як кончений наркоман, якому за 45 (стільки не всі і нормальні доживають) демонструє біг з перешкодами на рівні американських зелених беретів...

romanstar80 
Новенький


З нами з: 29.04.15
Востаннє: 13.12.18
Повідомлень: 2

2018-10-08 19:58  
Лажа повна! відтворення тільки кубіки! Хто викладав?
igor911 
Відео Гуртом
Відео Гуртом


З нами з: 18.01.08
Востаннє: 16.12.18
Повідомлень: 11618

2018-10-08 21:02  
romanstar80 написано:
відтворення тільки кубіки!

або ти щось наплутав, або проблема з твого боку.

Quq 
Новенький


З нами з: 06.06.16
Востаннє: 14.12.18
Повідомлень: 6

2018-11-18 13:57  
не марнуйте час
Ваш часовий пояс: GMT + 2 Години

Нова тема   Відповісти