Спеціальне завдання / The Shepherd: Border Patrol (2008) 1080p Ukr/Eng | Sub Eng

Нові коментарі

Нова тема   Відповісти
Автор Повідомлення
Anonymous 







2018-08-15 22:06  
Спеціальне завдання / The Shepherd: Border Patrol (2008) 1080p Ukr/Eng | Sub Eng

Спеціальне завдання / The Shepherd: Border Patrol (2008) 1080p Ukr/Eng | Sub Eng


Жанр: бойовик, трилер, кримінал
Країна: США



Кінокомпанія: Sony Pictures Home Entertainment / Stage 6 Films
Режисер: Айзек Флорентайн
Актори: Жан-Клод Ван Дамм, Скотт Едкінс, Стівен Лорд, Гарі МакДональд, Наталі Робб, Майлз Андерсон, Сава Драгунчев

Сюжет:
Колишні найманці спецпідрозділу американських військ розробляють план з ввезення на територію США колосальної партії наркотиків. Натхненні швидкою наживою, вони намагаються здійснити переправлення героїну через мексиканський кордон. І єдиний хто стає в них на шляху - це патрульний державної прикордонної служби Джек. Він колишній поліцейський, що працює під прикриттям і має ліцензію на вбивство прагнути присікти діяльність картелю і вгамувати свою спрагу... Спрагу справедливості, яка поряд зі спецпідготовкою не залишить ні найменшого шансу на пощаду ні віроломним чиновникам, ні запеклим відморозкам по обидва боки кордону...


Тривалість: 01:34:38
Якість: 1080p
Відео:
кодек:
розмір кадру: 1920х1080
бітрейт: 8477 кб/с

Аудіо # 1:
мова: українська
переклад: багатоголосий закадровий
кодек: 2.0
бітрейт: 224 кб/с

Аудіо # 2:
мова: англійська
переклад: оригінал
кодек: E- 5.1
бітрейт: 640 кб/с

Субтитри # 1-2:
мова: англійська
тип: програмні (м'які)
формат: *.srt
Info
General
Unique ID : 184579869983265514530372164007130869206 (0x8ADCCA352113C63E9898BB8E9E80ADD6)
Format :
Format version : Version 4 / Version 2
File size : 6.30 GiB
Duration : 1 h 34 min
Overall bit rate : 9 530 kb/s
Encoded date : UTC 2018-08-15 18:57:35
Writing application : v6.1.0 ('Old Devil') built on Mar 4 2013 09:10:42
Writing library : libebml v1.3.0 + v1.4.0

Video
ID : 1
Format : AVC
Format/Info : Advanced Video Codec
Format profile : [email protected]
Format settings : CABAC / 4 Ref Frames
Format settings, CABAC : Yes
Format settings, ReFrames : 4 frames
Codec ID : V_MPEG4/ISO/AVC
Duration : 1 h 34 min
Bit rate : 8 477 kb/s
Width : 1 920 pixels
Height : 1 080 pixels
Display aspect ratio : 16:9
Frame rate mode : Constant
Frame rate : 23.976 (24000/1001) FPS
Color space : YUV
Chroma subsampling : 4:2:0
Bit depth : 8 bits
Scan type : Progressive
Bits/(Pixel*Frame) : 0.171
Stream size : 5.60 GiB (89%)
Default : Yes
Forced : No
Color range : Limited
Color primaries : BT.709
Transfer characteristics : BT.709
Matrix coefficients : BT.709
Statistics Tags Issue : v13.0.0 ('The Juggler') 64bit 2018-08-09 23:45:56 / v6.1.0 ('Old Devil') built on Mar 4 2013 09:10:42 2018-08-15 18:57:35
FromStats_BitRate : 8664131
FromStats_Duration : 01:34:37.672000000
FromStats_FrameCount : 136128
FromStats_StreamSize : 6149011943

Audio #1
ID : 2
Format : AC-3
Format/Info : Audio Coding 3
Codec ID : A_AC3
Duration : 1 h 34 min
Bit rate mode : Constant
Bit rate : 224 kb/s
Channel(s) : 2 channels
Channel positions : Front: L R
Sampling rate : 48.0 kHz
Frame rate : 31.250 FPS (1536 SPF)
Bit depth : 16 bits
Compression mode : Lossy
Delay relative to video : 14 ms
Stream size : 152 MiB (2%)
Title : UKR (ICTV)
Language : Ukrainian
Service kind : Complete Main
Default : Yes
Forced : Yes

Audio #2
ID : 3
Format : E-AC-3
Format/Info : Enhanced Audio Coding 3
Codec ID : A_EAC3
Duration : 1 h 34 min
Bit rate mode : Constant
Bit rate : 640 kb/s
Channel(s) : 6 channels
Channel positions : Front: L C R, Side: L R, LFE
Sampling rate : 48.0 kHz
Frame rate : 187.500 FPS (256 SPF)
Compression mode : Lossy
Stream size : 433 MiB (7%)
Language : English
Service kind : Complete Main
Default : No
Forced : No
Statistics Tags Issue : v13.0.0 ('The Juggler') 64bit 2018-08-09 23:45:56 / v6.1.0 ('Old Devil') built on Mar 4 2013 09:10:42 2018-08-15 18:57:35
FromStats_BitRate : 640000
FromStats_Duration : 01:34:37.696000000
FromStats_FrameCount : 177428
FromStats_StreamSize : 454215680

Text #1
ID : 4
Format : UTF-8
Codec ID : S_TEXT/UTF8
Codec ID/Info : UTF-8 Plain Text
Language : English
Default : No
Forced : No
Statistics Tags Issue : v13.0.0 ('The Juggler') 64bit 2018-08-09 23:45:56 / v6.1.0 ('Old Devil') built on Mar 4 2013 09:10:42 2018-08-15 18:57:35
FromStats_BitRate : 33
FromStats_Duration : 01:29:26.127000000
FromStats_FrameCount : 800
FromStats_StreamSize : 22791

Text #2
ID : 5
Format : UTF-8
Codec ID : S_TEXT/UTF8
Codec ID/Info : UTF-8 Plain Text
Title : SDH
Language : English
Default : No
Forced : No
Statistics Tags Issue : v13.0.0 ('The Juggler') 64bit 2018-08-09 23:45:56 / v6.1.0 ('Old Devil') built on Mar 4 2013 09:10:42 2018-08-15 18:57:35
FromStats_BitRate : 38
FromStats_Duration : 01:29:55.590000000
FromStats_FrameCount : 1002
FromStats_StreamSize : 25666
Скріншоти







За українську доріжку подяка п. НТН
Особиста подяка пану denixx за надану матеріальну допомогу на підтримку цього і майбутніх релізів.

Джерело:


 Трекер:    Зареєстрований   

Завантажити / скачати фільм українською



відео для новачків



 Зареєстрований:   2018-08-15 22:06
 Розмір:   6.3 GB 
 Оцінка фільму:   7.8/10 (Голосів: 5)
   
Ваш часовий пояс: GMT + 2 Години

Нова тема   Відповісти