Таксі 5 / Taxi 5 (2018) Remux 1080p Ukr/Fre | Sub Eng

Нові коментарі

Нова тема   Відповісти
Автор Повідомлення
staf777 
Попереджень: 1
Попереджень: 1 


З нами з: 16.11.16
Востаннє: 21.10.18
Повідомлень: 1648

2018-08-15 15:50  
Таксі 5 / Taxi 5 (2018) Remux 1080p Ukr/Fre | Sub Eng



Жанр: бойовик, комедія, кримінальний
Країна: Франція



Кінокомпанія: EuropaCorp, T5 Production, ARP Sélection
Режисер: Франк Ґастамбід
Актори: Сабріна Уазані, Бернар Фарсі, Франк Ґастамбід, Малік Бенталья, Сальваторе Еспозіто, Едуар Монтут, Санд Ван Рой, Рамзі Бедіа, Івонн Граделе, Мусса Мааскрі та інші

Сюжет:
Геніальний молодий водій з Парижу Сільвен Маро працює у муніципальній поліції Марселю. Пан Жібер, колишній комісар поліції, а нині мер міста, доручає «супер-поліцейському» Маро затримку небезпечної банди італійців. Злочинці грабують ювелірні крамниці, тікаючи від переслідування на потужних Ferrari. Аби виконати свою місію, Сільвен змушений буде співпрацювати з найгіршим водієм міста Едді Маклуфом, племінником уславленого таксиста Даніеля.


Тривалість: 01:41:54
Якість: Remux 1080p
Відео:
кодек:
розмір кадру: 1920x1080
бітрейт: 24,1 Mб/с

Аудіо # 1:
мова: українська
переклад: професійний дубльований
кодек: 2.0
бітрейт: 192 кб/с

Аудіо # 2:
мова: французька
переклад: оригінал
кодек: TrueHD+Atmos 7.1
бітрейт: 3966 кб/с

Субтитри:
мова: англійська
тип: програмні (м'які)
формат: *.srt
Info
General
Unique ID : 307019421344240805286773625881883853848 (0xE6F9CA2A45D5356E9959395605944418)
Complete name : G:\Майбутні релізи\ Taxi 5 (2018) Remux 1080p [UKR_FRE] [Hurtom].
Format :
Format version : Version 4 / Version 2
File size : 20.1 GiB
Duration : 1 h 41 min
Overall bit rate mode : Variable
Overall bit rate : 28.3 Mb/s
Movie name : Taxi 5 (2018) Remux 1080p [UKR_FRE] [Hurtom]
Encoded date : UTC 2018-08-15 14:41:41
Writing application : v24.0.0 ('Beyond The Pale') 64-bit
Writing library : libebml v1.3.6 + v1.4.9
Cover : Yes
Attachments : cover.jpg

Video
ID : 1
Format : AVC
Format/Info : Advanced Video Codec
Format profile : [email protected]
Format settings : CABAC / 4 Ref Frames
Format settings, CABAC : Yes
Format settings, ReFrames : 4 frames
Codec ID : V_MPEG4/ISO/AVC
Duration : 1 h 41 min
Bit rate mode : Variable
Bit rate : 24.1 Mb/s
Maximum bit rate : 28.0 Mb/s
Width : 1 920 pixels
Height : 1 080 pixels
Display aspect ratio : 16:9
Frame rate mode : Constant
Frame rate : 24.000 FPS
Standard : NTSC
Color space : YUV
Chroma subsampling : 4:2:0
Bit depth : 8 bits
Scan type : Progressive
Bits/(Pixel*Frame) : 0.484
Stream size : 17.1 GiB (85%)
Language : French
Default : Yes
Forced : No
Color range : Limited
Color primaries : BT.709
Transfer characteristics : BT.709
Matrix coefficients : BT.709

Audio #1
ID : 2
Format : AC-3
Format/Info : Audio Coding 3
Codec ID : A_AC3
Duration : 1 h 41 min
Bit rate mode : Constant
Bit rate : 192 kb/s
Channel(s) : 2 channels
Channel positions : Front: L R
Sampling rate : 48.0 kHz
Frame rate : 31.250 FPS (1536 SPF)
Bit depth : 16 bits
Compression mode : Lossy
Stream size : 140 MiB (1%)
Title : DUB | Line
Language : Ukrainian
Service kind : Complete Main
Default : Yes
Forced : Yes

Audio #2
ID : 3
Format : TrueHD
Format profile : TrueHD+Atmos / TrueHD
Codec ID : A_TRUEHD
Duration : 1 h 41 min
Bit rate mode : Variable
Bit rate : 3 966 kb/s
Maximum bit rate : 6 201 kb/s
Channel(s) : Object Based / 8 channels
Channel positions : Object Based / Front: L C R, Side: L R, Back: L R, LFE
Sampling rate : / 48.0 kHz
Frame rate : 1 200.000 FPS (40 SPF)
Compression mode : Lossless
Stream size : 2.82 GiB (14%)
Title : Original
Language : French
Default : No
Forced : No

Text
ID : 4
Format : UTF-8
Codec ID : S_TEXT/UTF8
Codec ID/Info : UTF-8 Plain Text
Duration : 1 h 41 min
Bit rate : 61 b/s
Count of elements : 2159
Stream size : 45.8 KiB (0%)
Language : English
Default : No
Forced : No

Menu
00:00:00.000 : en:00:00:00.000
00:09:24.167 : en:00:09:24.167
00:17:19.417 : en:00:17:19.417
00:27:35.000 : en:00:27:35.000
00:34:09.750 : en:00:34:09.750
00:41:46.833 : en:00:41:46.833
00:50:04.125 : en:00:50:04.125
00:58:29.625 : en:00:58:29.625
01:06:05.708 : en:01:06:05.708
01:14:53.167 : en:01:14:53.167
01:23:59.333 : en:01:23:59.333
01:32:28.750 : en:01:32:28.750
Скріншоти




Джерело: & &
Особиста оцінка: 0 - не дивився


Золотий реліз (завантажене не впливає на рейтинг)
 Трекер:    Зареєстрований   

Завантажити / скачати фільм українською



відео для новачків



 Зареєстрований:   2018-08-15 18:16
 Розмір:   20.14 GB 
 Оцінка фільму:   5.6/10 (Голосів: 19)
   
Інші релізи
   Таксі 5 / Taxi 5 (2018) 1080p H.265 Ukr/Fre | Sub Eng/Fre -Star-Lord-  4 / 0   5.45 GB   2018-09-01 02:44 
   Таксі 5 / Taxi 5 (2018) 1080p Ukr/Fre | Sub Eng staf777  13 / 0   7.43 GB   2018-08-15 16:01 
   Таксі 5 / Taxi 5 (2018) 720p Ukr/Fre | Sub Eng/Fre 11FrYkT  33 / 0   6.17 GB   2018-08-08 07:39 
   Таксі 5 / Taxi 5 (2018) AVC Ukr/Fre uafilm.tv  79 / 0   1.58 GB   2018-08-08 01:20 
bot 
робот


З нами з: 30.09.07
Востаннє: 26.05.05
Повідомлень: 19984

2018-08-15 18:15  
Тему перенесено з Анонси релізів до форуму Фільми в HD


staf777

Oleksa9 
VIP


З нами з: 17.05.12
Востаннє: 21.10.18
Повідомлень: 311

2018-08-16 19:44  
Емм.... а попередні частини у такій якості, чи хоча б 1080р?
Uberwinder 
VIP


З нами з: 18.11.16
Востаннє: 21.10.18
Повідомлень: 267

2018-08-17 12:17  
Вітаю, а звук не з екранки планується?
Sexy_Beast 
Новенький


З нами з: 18.02.17
Востаннє: 21.10.18
Повідомлень: 21

2018-08-21 21:27  
Як фільм???
Lyolic 
VIP


З нами з: 04.08.09
Востаннє: 21.10.18
Повідомлень: 305

2018-08-22 13:39  
Sexy_Beast
Рейтинги відповідні )))
Є ржачні моменти, є такі, що аж гидко.

Oleksa9 
VIP


З нами з: 17.05.12
Востаннє: 21.10.18
Повідомлень: 311

2018-08-22 18:23  
Lyolic написано:
ржачні моменти

так, для коней....

Lyolic 
VIP


З нами з: 04.08.09
Востаннє: 21.10.18
Повідомлень: 305

2018-08-22 18:43  
Oleksa9
Угу...

Ваш часовий пояс: GMT + 2 Години

Нова тема   Відповісти