Таксі 5 / Taxi 5 (2018) 1080p Ukr/Fre | Sub Eng

Нові коментарі

Нова тема   Відповісти
Автор Повідомлення
staf777 
Відео Гуртом - підтримка та поширення
Відео Гуртом - підтримка та поширення


З нами з: 16.11.16
Востаннє: 19.04.19
Повідомлень: 2261

2018-08-15 15:44  
Таксі 5 / Taxi 5 (2018) 1080p Ukr/Fre | Sub Eng

Таксі 5 / Taxi 5 (2018) 1080p Ukr/Fre | Sub Eng


Жанр: бойовик, комедія, кримінал
Країна: Франція



Кінокомпанія: EuropaCorp, T5 Production, ARP Sélection
Режисер: Франк Ґастамбід
Актори: Сабріна Уазані, Бернар Фарсі, Франк Ґастамбід, Малік Бенталья, Сальваторе Еспозіто, Едуар Монтут, Санд Ван Рой, Рамзі Бедіа, Івонн Граделе, Мусса Мааскрі та інші

Сюжет:
Геніальний молодий водій з Парижу Сільвен Маро працює у муніципальній поліції Марселю. Пан Жібер, колишній комісар поліції, а нині мер міста, доручає «супер-поліцейському» Маро затримку небезпечної банди італійців. Злочинці грабують ювелірні крамниці, тікаючи від переслідування на потужних Ferrari. Аби виконати свою місію, Сільвен змушений буде співпрацювати з найгіршим водієм міста Едді Маклуфом, племінником уславленого таксиста Даніеля.


Тривалість: 01:41:54
Якість:
Відео:
кодек:
розмір кадру: 1920x804
бітрейт: 9620 кб/с

Аудіо # 1:
мова: українська
переклад: професійний дубльований | студія Pie Post Production
кодек: 2.0
бітрейт: 192 кб/с
Інформація про дубляж
Переклад: Надія Вальнюк
Режисер дубляжу: Лідія Громовенко,
Звукорежисери: Роман Матвєєв, Віталій Ящук
Звукорежисер перезапису: Віталій Ящук
Ролі дублювали: Дмитро Гаврилов, Андрій Федінчик, Михайло Кришталь, Михайло Войчук, Дмитро Завадський, Аліна Проценко, Юлія Перенчук, Андрій Альохін, Юрій Гребельник, Дмитро Вікулов, Володимир Плахов, Юрій Кудрявець та інші.

Фільм дубльовано компанією Pie Post Production на замовлення компанії UFD.
Аудіо # 2:
мова: французька
переклад: оригінал
кодек: 5.1
бітрейт: 640 кб/с

Субтитри:
мова: англійська
тип: програмні (м'які)
формат: *.srt
Info
General
Unique ID : 105702328169055618244205216903108794548 (0x4F85872488D8941B02041CF75C4498B4)
Complete name : G:\Майбутні релізи\Taxi 5 (2018) 1080p [UKR_FRE] [Hurtom].
Format :
Format version : Version 4 / Version 2
File size : 7.43 GiB
Duration : 1 h 41 min
Overall bit rate : 10.4 Mb/s
Movie name : Taxi 5 (2018) 1080p [UKR_FRE] [Hurtom]
Encoded date : UTC 2018-08-15 12:40:46
Writing application : v24.0.0 ('Beyond The Pale') 64-bit
Writing library : libebml v1.3.6 + v1.4.9
Cover : Yes
Attachments : cover.jpg

Video
ID : 1
Format : AVC
Format/Info : Advanced Video Codec
Format profile : [email protected]
Format settings : CABAC / 5 Ref Frames
Format settings, CABAC : Yes
Format settings, ReFrames : 5 frames
Codec ID : V_MPEG4/ISO/AVC
Duration : 1 h 41 min
Bit rate : 9 620 kb/s
Width : 1 920 pixels
Height : 804 pixels
Display aspect ratio : 2.40:1
Frame rate mode : Constant
Frame rate : 24.000 FPS
Color space : YUV
Chroma subsampling : 4:2:0
Bit depth : 8 bits
Scan type : Progressive
Bits/(Pixel*Frame) : 0.260
Stream size : 6.83 GiB (92%)
Writing library : core 155 r2901M 7d0ff22
Encoding settings : cabac=1 / ref=5 / deblock=1:-3:-3 / analyse=0x3:0x113 / me=umh / subme=11 / psy=1 / psy_rd=1.00:0.05 / mixed_ref=1 / me_range=48 / chroma_me=1 / trellis=2 / 8x8dct=1 / cqm=0 / deadzone=21,11 / fast_pskip=0 / chroma_qp_offset=-3 / threads=9 / lookahead_threads=2 / sliced_threads=0 / nr=0 / decimate=0 / interlaced=0 / bluray_compat=0 / constrained_intra=0 / bframes=12 / b_pyramid=2 / b_adapt=2 / b_bias=0 / direct=3 / weightb=1 / open_gop=0 / weightp=2 / keyint=240 / keyint_min=24 / scenecut=40 / intra_refresh=0 / rc_lookahead=100 / rc=2pass / mbtree=0 / bitrate=9620 / ratetol=1.0 / qcomp=0.70 / qpmin=0 / qpmax=69 / qpstep=4 / cplxblur=20.0 / qblur=0.5 / vbv_maxrate=50000 / vbv_bufsize=50000 / nal_hrd=none / filler=0 / ip_ratio=1.40 / pb_ratio=1.30 / aq=2:0.70
Language : French
Default : Yes
Forced : No
Color range : Limited
Color primaries : BT.709
Transfer characteristics : BT.709
Matrix coefficients : BT.709

Audio #1
ID : 2
Format : AC-3
Format/Info : Audio Coding 3
Codec ID : A_AC3
Duration : 1 h 41 min
Bit rate mode : Constant
Bit rate : 192 kb/s
Channel(s) : 2 channels
Channel positions : Front: L R
Sampling rate : 48.0 kHz
Frame rate : 31.250 FPS (1536 SPF)
Bit depth : 16 bits
Compression mode : Lossy
Stream size : 140 MiB (2%)
Title : DUB | Line
Language : Ukrainian
Service kind : Complete Main
Default : Yes
Forced : Yes

Audio #2
ID : 3
Format : AC-3
Format/Info : Audio Coding 3
Codec ID : A_AC3
Duration : 1 h 41 min
Bit rate mode : Constant
Bit rate : 640 kb/s
Channel(s) : 6 channels
Channel positions : Front: L C R, Side: L R, LFE
Sampling rate : 48.0 kHz
Frame rate : 31.250 FPS (1536 SPF)
Bit depth : 16 bits
Compression mode : Lossy
Stream size : 466 MiB (6%)
Title : Original | DD 5.1 @ 640 kbps
Language : French
Service kind : Complete Main
Default : No
Forced : No

Text
ID : 4
Format : UTF-8
Codec ID : S_TEXT/UTF8
Codec ID/Info : UTF-8 Plain Text
Duration : 1 h 41 min
Bit rate : 61 b/s
Count of elements : 2159
Stream size : 45.8 KiB (0%)
Language : English
Default : No
Forced : No
Скріншоти




Джерело: & &
Особиста оцінка: 0 - не дивився


 Трекер:    Зареєстрований   

Завантажити / скачати фільм українською



відео для новачків



 Зареєстрований:   2018-08-15 16:01
 Розмір:   7.43 GB 
 Оцінка фільму:   5.4/10 (Голосів: 19)
   
Інші релізи
   Таксі 5 / Taxi 5 (2018) 1080p H.265 Ukr/Fre | Sub Eng/Fre -Star-Lord-  3 / 0   5.45 GB   2018-09-01 02:44 
   Таксі 5 / Taxi 5 (2018) Remux 1080p Ukr/Fre | Sub Eng staf777  4 / 0   20.14 GB   2018-08-15 18:16 
   Таксі 5 / Taxi 5 (2018) 720p Ukr/Fre | Sub Eng/Fre 11FrYkT  10 / 0   6.17 GB   2018-08-08 07:39 
   Таксі 5 / Taxi 5 (2018) AVC Ukr/Fre uafilm.tv  38 / 0   1.58 GB   2018-08-08 01:20 
Âàëåð³î 
Новенький


З нами з: 17.03.11
Востаннє: 19.08.18
Повідомлень: 1

2018-08-19 11:33  
неможу завантажити
пише не смонтирован предшествующий том

drot1715 
Новенький


З нами з: 27.08.14
Востаннє: 18.04.19
Повідомлень: 3

2018-08-26 22:06  
чи буде звук 5.1?
Ваш часовий пояс: GMT + 2 Години

Нова тема   Відповісти