Людина темряви (Людина пітьми) / Darkman (1990) 1080p 2xUkr/Eng | Sub Eng

Нові коментарі

Нова тема   Відповісти
Автор Повідомлення
Anonymous 







2018-08-15 12:17  
Людина темряви (Людина пітьми) / Darkman (1990) 1080p 2xUkr/Eng | Sub Eng

Людина темряви (Людина пітьми) / Darkman (1990) 1080p 2xUkr/Eng | Sub Eng


Жанр: фантастика, жахи, трилер, бойовик
Країна: США



Кінокомпанія: Renaissance Pictures, Universal Pictures
Режисер: Сем Реймі
Актори: Ліам Нісон, Френсіс МакДорманд, Колін Фрілз, Ларрі Дрейк, Нелсон Машіта, Джессі Лоуренс Фергюсон

Сюжет:
Доктор Пейтон Вістлейк знаходиться на порозі грандіозного відкриття: він закінчує експерименти по створенню штучної людської шкіри. Але банда карних злочинців на чолі зі збоченим садистом Робертом Дюрантом вторгається в лабораторію Пейтона та підриває її разом з нещасним доктором. Дивом залишився в живих і спотворений до невпізнання Пейтон, вирішує помститися покидькам. Але тепер він постане перед ними не як доктор Уестлейк, а як грізна і страшна Людина Пітьми!


Тривалість: 01:35:23
Якість: 1080p
Відео:
кодек:
розмір кадру: 1920х1040
бітрейт: 9 236 кб/с

Аудіо # 1:
мова: українська
переклад: двоголосий закадровий
кодек: 2.0
бітрейт: 192 кб/с
Ролі озвучили: Георгій Гавриленко і Лариса Руснак

Аудіо # 2:
мова: українська
переклад: багатоголосий закадровий ,
кодек: 2.0
бітрейт: 192 кб/с
Ролі озвучили: Володимир Терещук, Дмитро Терещук, Юрій Гребельник та один жіночий

Аудіо # 3:
мова: англійська
переклад: оригінал
кодек: 5.1
бітрейт: 1 510 кб/с

Субтитри:
мова: англійська
тип: програмні (м'які)
формат: *.srt
Info

General
Unique ID : 223747413441197972870283111875100120981 (0xA8542F31BAB5AD51916326640D619795)
Complete name : F:\Toloka\2020\Darkman (1990) 1080p.
Format :
Format version : Version 4
File size : 7.56 GiB
Duration : 1 h 35 min
Overall bit rate : 11.4 Mb/s
Encoded date : UTC 2020-08-11 08:21:07
Writing application : v6.1.0 ('Old Devil') built on Mar 4 2013 09:10:42
Writing library : libebml v1.3.0 + v1.4.0

Video
ID : 1
Format : AVC
Format/Info : Advanced Video Codec
Format profile : [email protected]
Format settings : CABAC / 4 Ref Frames
Format settings, CABAC : Yes
Format settings, Reference : 4 frames
Codec ID : V_MPEG4/ISO/AVC
Duration : 1 h 35 min
Bit rate : 9 233 kb/s
Width : 1 920 pixels
Height : 1 040 pixels
Display aspect ratio : 1.85:1
Frame rate mode : Constant
Frame rate : 23.976 FPS
Color space : YUV
Chroma subsampling : 4:2:0
Bit depth : 8 bits
Scan type : Progressive
Bits/(Pixel*Frame) : 0.193
Stream size : 6.15 GiB (81%)
Writing library : core 114 r1913 5fd3dce
Encoding settings : cabac=1 / ref=4 / deblock=1:-3:-3 / analyse=0x3:0 / me=umh / subme=10 / psy=1 / psy_rd=1.00:0.00 / mixed_ref=0 / me_range=64 / chroma_me=1 / trellis=2 / 8x8dct=1 / cqm=0 / deadzone=21,11 / fast_pskip=1 / chroma_qp_offset=-2 / threads=9 / sliced_threads=0 / nr=0 / decimate=1 / interlaced=0 / constrained_intra=0 / bframes=6 / b_pyramid=2 / b_adapt=2 / b_bias=0 / direct=1 / weightb=1 / open_gop=0 / weightp=2 / keyint=250 / keyint_min=23 / scenecut=40 / intra_refresh=0 / rc=crf / mbtree=0 / crf=18.0 / qcomp=0.70 / qpmin=0 / qpmax=69 / qpstep=4 / ip_ratio=1.40 / pb_ratio=1.30 / aq=1:1.00
Language : English
Default : Yes
Forced : No
Duration_Source : General_Duration

Audio #1
ID : 2
Format : AC-3
Format/Info : Audio Coding 3
Commercial name : Dolby Digital
Codec ID : A_AC3
Duration : 1 h 35 min
Bit rate mode : Constant
Bit rate : 192 kb/s
Channel(s) : 2 channels
Channel layout : L R
Sampling rate : 48.0 kHz
Frame rate : 31.250 FPS (1536 SPF)
Compression mode : Lossy
Stream size : 131 MiB (2%)
Title : UKR (1+1)
Language : Ukrainian
Service kind : Complete Main
Default : Yes
Forced : Yes
Duration_Source : General_Duration

Audio #2
ID : 3
Format : AC-3
Format/Info : Audio Coding 3
Commercial name : Dolby Digital
Codec ID : A_AC3
Duration : 1 h 35 min
Bit rate mode : Constant
Bit rate : 192 kb/s
Channel(s) : 2 channels
Channel layout : L R
Sampling rate : 48.0 kHz
Frame rate : 31.250 FPS (1536 SPF)
Compression mode : Lossy
Stream size : 131 MiB (2%)
Title : UKR (ICTV, НЛО-ТБ)
Language : Ukrainian
Service kind : Complete Main
Default : No
Forced : No
Duration_Source : General_Duration

Audio #3
ID : 4
Format :
Format/Info : Digital Theater Systems
Codec ID : A_DTS
Duration : 1 h 35 min
Bit rate mode : Constant
Bit rate : 1 510 kb/s
Channel(s) : 6 channels
Channel layout : C L R Ls Rs LFE
Sampling rate : 48.0 kHz
Frame rate : 93.750 FPS (512 SPF)
Bit depth : 24 bits
Compression mode : Lossy
Delay relative to video : 11 ms
Stream size : 1.01 GiB (13%)
Language : English
Default : No
Forced : No
Duration_Source : General_Duration

Text
ID : 5
Format : UTF-8
Codec ID : S_TEXT/UTF8
Codec ID/Info : UTF-8 Plain Text
Language : English
Default : No
Forced : No

Menu
00:00:00.000 : en:01.Just Another Tough Guy
00:05:32.623 : en:02.Main Titles
00:09:35.032 : en:03.Peyt and Jules
00:14:49.805 : en:04.What is It About the Dark?
00:19:35.507 : en:05.Blown to Pieces
00:21:46.430 : en:06.The Hospital
00:28:21.991 : en:07.Setting Up Shop
00:34:42.997 : en:08.Rick Retires
00:36:29.812 : en:09.Playing Pauly
00:50:18.682 : en:10.The Duplicant Durant
00:57:54.470 : en:11.The Pink Elephant
01:09:03.055 : en:12.War at the Warehouse
01:11:19.942 : en:13.Darkman Gets Some
01:14:22.291 : en:14.The Enemies In the Air
01:20:24.277 : en:15.On the Edge
01:29:08.343 : en:16.End Titles: Call Me Darkman
Скріншоти







За запис звуку з ТБ подяка п.: РОМЕО, xslim
За постер подяка п.Тирік'у
Особиста подяка пану denixx за надану матеріальну допомогу на підтримку цього і майбутніх релізів.
Джерело:


Срібний реліз (на рейтинг впливає 50% завантаженого)
 Трекер:    Зареєстрований   

Завантажити / скачати фільм українською



відео для новачків



 Зареєстрований:   2020-08-11 11:25
 Розмір:   7.56 GB 
 Оцінка фільму:   8.8/10 (Голосів: 9)
   
Інші релізи
[email protected] 
VIP


З нами з: 25.03.17
Востаннє: 30.09.20
Повідомлень: 552

2019-11-24 14:47  
7\10
hetzendorf 
Попереджень: 2
Попереджень: 2 


З нами з: 23.07.15
Востаннє: 30.09.20
Повідомлень: 2876

2020-01-23 01:04  
Фраза наприкінці «Тепер я вчуся жити по-новому!» дуууже повеселила ^__^ Лише за це
4/10

Anonymous 







2020-08-11 11:34  
додано доріжку від 1+1
sci-fi 
Свій


З нами з: 16.10.13
Востаннє: 30.09.20
Повідомлень: 124

2020-08-12 00:10  
Хоча то і є наївна казочка-страшилка (бо назвати то фантастикою язик якось не повертається), але про перегляд не шкодую, досить навіть добре зайшло, не зважаючи що то кіно далеко не вищого ґатунку Happy
6.5 / 10

Ваш часовий пояс: GMT + 2 Години

Нова тема   Відповісти