Незламна Кіммі Шмідт (Сезон 1-2) / Unbreakable Kimmy Schmidt (Season 1-2) (2015-2016) 720p Eng | sub Ukr/Eng

Нові коментарі

Нова тема   Відповісти
Автор Повідомлення
Anonymous 







2018-08-15 10:40  
Незламна Кіммі Шмідт (Сезон 1-2) / Unbreakable Kimmy Schmidt (Season 1-2)
(2015-2016) 720p Eng | sub Ukr/Eng

Незламна Кіммі Шмідт (Сезон 1-2) / Unbreakable Kimmy Schmidt (Season 1-2) (2015-2016) 720p Eng | sub Ukr/Eng


Жанр: комедія, драма
Країна: США



Кінокомпанія: Netflix
Режисер: Трістрам Шапіро / Майкл Енґлер
Актори: Еллі Кемпер, Тітусс Берджес, Джейн Краковські, Керол Кен, Сара Чейз, Тіна Фей.

Сюжет:
Головну героїню серіалу, 29-річну Кіммі Шмідт, рятують з культу божевільного пастора, який тримав кількох жінок під землею протягом 15 років. Вийшовши на волю, Кіммі переїжджає до Нью-Йорку і пристосовується до життя, яке у неї відібрали. Озброєна лише одним позитивним ставленням до життя, дівчина одразу ж починає дружити з ексцентричною власницею будинку Ліліан, що відрізняється старомодними і расистськими поглядами, і яскравим сусідом Тітусом Андромедоном, що живе собі на втіху і намагається стати співаком і актором. Кіммі також влаштовується на роботу нянею в сім'ю меланхолійної і зарозумілою Жаклін Вурхиз ...
Перелік і назви серій
Сезон 1
1. Kimmy Goes Outside!
2. Kimmy Gets a Job!
3. Kimmy Goes on a Date!
4. Kimmy Goes to the Doctor!
5. Kimmy Kisses a Boy!
6. Kimmy Goes to School!
7. Kimmy Goes to a Party!
8. Kimmy Is Bad at Math!
9. Kimmy Has a Birthday!
10. Kimmy's in a Love Triangle!
11. Kimmy Rides a Bike!
12. Kimmy Goes to Court!
13. Kimmy Makes Waffles!
Сезон 2
1.Kimmy Goes Roller Skating!
2.Kimmy Goes on a Playdate!
3.Kimmy Goes to a Play!
4.Kimmy Kidnaps Gretchen!
5.Kimmy Gives Up!
6.Kimmy Drives a Car!
7.Kimmy Walks Into a Bar!
8.Kimmy Goes to a Hotel!
9.Kimmy Meets a Drunk Lady!
10.Kimmy Goes to Her Happy Place!
11.Kimmy Meets a Celebrity!
12.Kimmy Sees a Sunset!
13.Kimmy Finds Her Mom!
Тривалість: 24хв [Cерій 26 з 26]
Якість:
Відео:
кодек:
розмір кадру: 1280 х 720
бітрейт: ~ 4000 кб/с

Аудіо:
мова: англійська
переклад: оригінал
кодек: 5.1
бітрейт: 640 кб/с

Субтитри:
мова: українська
тип: програмні (м'які)
формат: *.srt
переклад: Ольга Переходченко


Субтитри:
мова: англійська
тип: програмні (м'які)
формат: *.srt
Info:
Код:
Complete name               : H:\Serials\Unbreakable Kimmy Schmidt (s01) 720p\S01E01.
Format                      :
Format version              : Version 4 / Version 2
File size                   : 786 MiB
Duration                    : 23 min 51 s
Overall bit rate            : 4 604 kb/s
Encoded date                : UTC 2018-08-14 22:59:18
Writing application         : v24.0.0 ('Beyond The Pale') 64-bit
Writing library             : libebml v1.3.6 + v1.4.9

Video
ID                          : 1
Format                      : AVC
Format/Info                 : Advanced Video Codec
Format profile              : [email protected]
Format settings             : CABAC / 5 Ref Frames
Format settings, CABAC      : Yes
Format settings, ReFrames   : 5 frames
Codec ID                    : V_MPEG4/ISO/AVC
Duration                    : 23 min 51 s
Bit rate                    : 3 962 kb/s
Width                       : 1 280 pixels
Height                      : 720 pixels
Display aspect ratio        : 16:9
Frame rate mode             : Constant
Frame rate                  : 23.976 (23976/1000) FPS
Color space                 : YUV
Chroma subsampling          : 4:2:0
Bit depth                   : 8 bits
Scan type                   : Progressive
Bits/(Pixel*Frame)          : 0.179
Stream size                 : 676 MiB (86%)
Writing library             : core 146 r2538 121396c
Encoding settings           : cabac=1 / ref=5 / deblock=1:0:0 / analyse=0x3:0x113 / me=umh / subme=8 / psy=1 / psy_rd=1.00:0.00 / mixed_ref=1 / me_range=16 / chroma_me=1 / trellis=1 / 8x8dct=1 / cqm=0 / deadzone=21,11 / fast_pskip=1 / chroma_qp_offset=-2 / threads=12 / lookahead_threads=2 / sliced_threads=0 / nr=0 / decimate=1 / interlaced=0 / bluray_compat=0 / constrained_intra=0 / bframes=3 / b_pyramid=2 / b_adapt=2 / b_bias=0 / direct=3 / weightb=1 / open_gop=0 / weightp=2 / keyint=250 / keyint_min=23 / scenecut=40 / intra_refresh=0 / rc_lookahead=50 / rc=crf / mbtree=1 / crf=18.0 / qcomp=0.60 / qpmin=0 / qpmax=69 / qpstep=4 / ip_ratio=1.40 / aq=1:1.00
Language                    : English
Default                     : Yes
Forced                      : No
Color range                 : Limited
Matrix coefficients         : BT.709

Audio
ID                          : 2
Format                      : AC-3
Format/Info                 : Audio Coding 3
Commercial name             : Dolby Digital
Codec ID                    : A_AC3
Duration                    : 23 min 50 s
Bit rate mode               : Constant
Bit rate                    : 640 kb/s
Channel(s)                  : 6 channels
Channel positions           : Front: L C R, Side: L R, LFE
Sampling rate               : 48.0 kHz
Frame rate                  : 31.250 FPS (1536 SPF)
Bit depth                   : 16 bits
Compression mode            : Lossy
Stream size                 : 109 MiB (14%)
Language                    : English
Service kind                : Complete Main
Default                     : No
Forced                      : No

Text #1
ID                          : 3
Format                      : UTF-8
Codec ID                    : S_TEXT/UTF8
Codec ID/Info               : UTF-8 Plain Text
Duration                    : 22 min 35 s
Bit rate                    : 119 b/s
Count of elements           : 418
Stream size                 : 19.7 KiB (0%)
Title                       : Netflix
Language                    : Ukrainian
Default                     : Yes
Forced                      : Yes

Text #2
ID                          : 4
Format                      : UTF-8
Codec ID                    : S_TEXT/UTF8
Codec ID/Info               : UTF-8 Plain Text
Duration                    : 23 min 45 s
Bit rate                    : 85 b/s
Count of elements           : 472
Stream size                 : 14.9 KiB (0%)
Language                    : English
Default                     : No
Forced                      : No
Скріншоти:







Подяка: за надані субтитри пану krigg070
Джерело:
Особиста оцінка: 10 - без зайвих вагань рекомендую всім!


Бронзовий реліз (на рейтинг впливає 75% завантаженого)
 Трекер:    Зареєстрований   

Завантажити / скачати серіал українською



відео для новачків



 Зареєстрований:   2018-08-26 14:10
 Розмір:   20.13 GB 
 Оцінка серіалу:   9.9/10 (Голосів: 7)
   
Dark Invader 
Модератор відео


З нами з: 06.01.11
Востаннє: 03.12.20
Повідомлень: 3009

2018-08-18 21:36  
Додайте рік виходу.
Anonymous 







2018-08-26 13:34  
Додано другий сезон.
Для тих хто вже вантажив перший сезон.
Потрібно створити папку Unbreakable Kimmy Schmidt і скинути папку з першим сезонои туди


У другому сезоні ви побачите Лізі Кудров ( Фібі з Друзів)

SurFutur 
VIP


З нами з: 12.03.15
Востаннє: 03.12.20
Повідомлень: 516

2018-09-24 02:18  
Anonymous

А часом немає субтитрів до 3-го сезону та перших 6-ти серій 4-го сезону?

Anonymous 







2018-09-30 07:00  
SurFutur
На жаль немає.

rakab 
Свій


З нами з: 02.08.09
Востаннє: 28.11.20
Повідомлень: 96

2018-11-09 23:18  
Станьте хтось, будь-ласка, на роздачу Happy
Anonymous 







2018-11-10 09:21  
rakab
Через кілька годин стану. Не тікайте з роздачі))

don pedro 
Попереджень: 1
Попереджень: 1 


З нами з: 29.06.11
Востаннє: 03.12.20
Повідомлень: 18234

2018-11-28 22:16  
Офіційно попереджаю всіх стурбованих цими питаннями: одним з головних героїв фільму та кращим другом Кіммі Шмідт є чорний гей-митець, який, на додачу до всього, ще й спокушає білого робітника, перевівши цим його грати за голубу команду. Бис ти потім не яйкали про "засилля збоченців".
ALFROMEDA 
Відео Гуртом - підтримка та поширення
Відео Гуртом - підтримка та поширення


З нами з: 09.07.12
Востаннє: 03.12.20
Повідомлень: 365

2019-07-04 17:11  
Хто знає чи є на нетфліксі саби до 3, 4 сезонів?
Anonymous 







2019-08-17 10:54  
ALFROMEDA написано:
Хто знає чи є на нетфліксі саби до 3, 4 сезонів?

нема =(

[Captain] 
Попереджень: 1
Попереджень: 1 


З нами з: 18.02.12
Востаннє: 29.11.20
Повідомлень: 2338

2019-11-03 22:37  
don pedro написано:
Офіційно попереджаю всіх стурбованих цими питаннями: одним з головних героїв фільму та кращим другом Кіммі Шмідт є чорний гей-митець, який, на додачу до всього, ще й спокушає білого робітника, перевівши цим його грати за голубу команду. Бис ти потім не яйкали про "засилля збоченців".

вмієте ви описувати.))

don pedro 
Попереджень: 1
Попереджень: 1 


З нами з: 29.06.11
Востаннє: 03.12.20
Повідомлень: 18234

2019-11-03 23:10  
[Captain]
Звичайна служба громаді.

don pedro 
Попереджень: 1
Попереджень: 1 


З нами з: 29.06.11
Востаннє: 03.12.20
Повідомлень: 18234

2020-05-11 22:53  
За цим серіалом є фільм:
https://www.kinofilms.ua/ukr/news/20772/

Anonymous 







2020-05-11 23:19  
don pedro написано:
За цим серіалом є фільм:

срака мотика, а в мене тільки три дні тому підписка скінчилася(

don pedro 
Попереджень: 1
Попереджень: 1 


З нами з: 29.06.11
Востаннє: 03.12.20
Повідомлень: 18234

2020-05-11 23:45  
Anonymous
Будьте незламним. Як Кіммі.

Ваш часовий пояс: GMT + 2 Години

Нова тема   Відповісти