Водійські права / License to Drive (1988) 720p 2xUkr/Eng | Sub Eng

Нові коментарі

Нова тема   Відповісти
Автор Повідомлення
staf777 
Відео Гуртом - підтримка та поширення
Відео Гуртом - підтримка та поширення


З нами з: 16.11.16
Востаннє: 14.11.19
Повідомлень: 3019

2018-08-15 09:39  
Водійські права / License to Drive (1988) 720p 2xUkr/Eng | Sub Eng

Водійські права / License to Drive (1988) 720p 2xUkr/Eng | Sub Eng

«Some guys get all the brakes!»



Жанр: комедія
Країна: США



Кіностудія / кінокомпанія: Davis Entertainment, Twentieth Century Fox Film Corporation
Режисер: Грег Біман
Актори: Корі Хайм, Корі Фельдман, Керол Кейн, Річард Мазур, Хізер Грем

Сюжет:
Молодіжна комедія про шістнадцятилітнього хлопця, який приховав від усіх, що не здав іспити на водіння автомобілем. Але завоювати серце без автомобіля в Америці майже неможливо, тому Лес наважується на відчайдушний вчинок, вночі він без дозволу бере кадилак свого дідуся. І ось починаються його нічні пригоди...


Тривалість: 01:29:51
Якість: 720p
Відео:
кодек:
розмір кадру: 1280 x 694
бітрейт: 6311 кб/с

Аудіо # 1:
мова: українська
переклад: двоголосий закадровий
кодек: 5.1
бітрейт: 1509 кб/с
Доріжка отримана накладенням чистого голосу на центр декодованого Dolby TrueHD

Аудіо # 2:
мова: українська
переклад: двоголосий закадровий
кодек: 2.0
бітрейт: 192 кб/с

Аудіо # 3:
мова: англійська
переклад: оригінал
кодек: 5.1
бітрейт: 1510 кб/с

Субтитри:
мова: англійська
тип: програмні (м'які)
формат: *.srt
Info
Код:
General
Unique ID                   : 279830711831538735571912951684604760628 (0xD2856F4A4E19FAE8BE681E1615621234)
Complete name               : G:\Майбутні релізи\License to Drive (1988) 720p [2xUkr,Eng sub.Eng] [Hurtom].
Format                      :
Format version              : Version 4 / Version 2
File size                   : 5.98 GiB
Duration                    : 1 h 29 min
Overall bit rate            : 9 524 kb/s
Movie name                  : License to Drive (1988) 720p [2xUkr,Eng sub.Eng] [Hurtom]
Encoded date                : UTC 2018-08-15 07:31:32
Writing application         : v24.0.0 ('Beyond The Pale') 64-bit
Writing library             : libebml v1.3.6 + v1.4.9
Cover                       : Yes
Attachments                 : cover.jpg

Video
ID                          : 1
Format                      : AVC
Format/Info                 : Advanced Video Codec
Format profile              : [email protected]
Format settings             : CABAC / 9 Ref Frames
Format settings, CABAC      : Yes
Format settings, ReFrames   : 9 frames
Codec ID                    : V_MPEG4/ISO/AVC
Duration                    : 1 h 29 min
Bit rate                    : 6 311 kb/s
Width                       : 1 280 pixels
Height                      : 694 pixels
Display aspect ratio        : 1.85:1
Frame rate mode             : Constant
Frame rate                  : 23.976 FPS
Color space                 : YUV
Chroma subsampling          : 4:2:0
Bit depth                   : 8 bits
Scan type                   : Progressive
Bits/(Pixel*Frame)          : 0.296
Stream size                 : 3.96 GiB (66%)
Title                       : License.to.Drive.1988.BluRay.720p..-CHD
Writing library             : core 122 r2184 5c85e0a
Encoding settings           : cabac=1 / ref=9 / deblock=1:-3:-3 / analyse=0x3:0x113 / me=umh / subme=10 / psy=1 / psy_rd=1.10:0.10 / mixed_ref=1 / me_range=32 / chroma_me=1 / trellis=2 / 8x8dct=1 / cqm=0 / deadzone=21,11 / fast_pskip=0 / chroma_qp_offset=-2 / threads=12 / sliced_threads=0 / nr=0 / decimate=1 / interlaced=0 / bluray_compat=0 / constrained_intra=0 / bframes=6 / b_pyramid=2 / b_adapt=2 / b_bias=0 / direct=3 / weightb=1 / open_gop=0 / weightp=2 / keyint=250 / keyint_min=23 / scenecut=40 / intra_refresh=0 / rc_lookahead=60 / rc=2pass / mbtree=0 / bitrate=6311 / ratetol=1.0 / qcomp=0.60 / qpmin=0 / qpmax=69 / qpstep=4 / cplxblur=20.0 / qblur=0.5 / vbv_maxrate=40000 / vbv_bufsize=40000 / nal_hrd=none / ip_ratio=1.40 / pb_ratio=1.30 / aq=1:0.90
Language                    : English
Default                     : Yes
Forced                      : No

Audio #1
ID                          : 2
Format                      :
Format/Info                 : Digital Theater Systems
Codec ID                    : A_DTS
Duration                    : 1 h 29 min
Bit rate mode               : Constant
Bit rate                    : 1 509 kb/s
Channel(s)                  : 6 channels
Channel positions           : Front: L C R, Side: L R, LFE
Sampling rate               : 48.0 kHz
Frame rate                  : 93.750 FPS (512 SPF)
Bit depth                   : 24 bits
Compression mode            : Lossy
Stream size                 : 970 MiB (16%)
Language                    : Ukrainian
Default                     : Yes
Forced                      : Yes

Audio #2
ID                          : 3
Format                      : AC-3
Format/Info                 : Audio Coding 3
Codec ID                    : A_AC3
Duration                    : 1 h 29 min
Bit rate mode               : Constant
Bit rate                    : 192 kb/s
Channel(s)                  : 2 channels
Channel positions           : Front: L R
Sampling rate               : 48.0 kHz
Frame rate                  : 31.250 FPS (1536 SPF)
Bit depth                   : 16 bits
Compression mode            : Lossy
Stream size                 : 123 MiB (2%)
Language                    : Ukrainian
Service kind                : Complete Main
Default                     : No
Forced                      : No

Audio #3
ID                          : 4
Format                      :
Format/Info                 : Digital Theater Systems
Codec ID                    : A_DTS
Duration                    : 1 h 29 min
Bit rate mode               : Constant
Bit rate                    : 1 510 kb/s
Channel(s)                  : 6 channels
Channel positions           : Front: L C R, Side: L R, LFE
Sampling rate               : 48.0 kHz
Frame rate                  : 93.750 FPS (512 SPF)
Bit depth                   : 24 bits
Compression mode            : Lossy
Stream size                 : 970 MiB (16%)
Title                       : Original 5.1 1536 kbps
Language                    : English
Default                     : No
Forced                      : No

Text
ID                          : 5
Format                      : UTF-8
Codec ID                    : S_TEXT/UTF8
Codec ID/Info               : UTF-8 Plain Text
Duration                    : 1 h 27 min
Bit rate                    : 61 b/s
Count of elements           : 1256
Stream size                 : 39.1 KiB (0%)
Language                    : English
Default                     : No
Forced                      : No
Світлини





Джерело: &
Особиста оцінка: 0 - не дивився


Срібний реліз (на рейтинг впливає 50% завантаженого)
 Трекер:    Зареєстрований   

Завантажити / скачати фільм українською



відео для новачків



 Зареєстрований:   2018-08-15 15:33
 Розмір:   5.98 GB 
 Оцінка фільму:   8.2/10 (Голосів: 12)
   
Інші релізи
EvGaS 
Відео Гуртом - субтитрування
Відео Гуртом - субтитрування


З нами з: 27.02.12
Востаннє: 31.07.19
Повідомлень: 5674

2018-08-16 05:52  
Саме той випадок, де «Актор однієї ролі». (тобто, одна зіграна роль, проте дуже відома)

Легка старенька комедія.
Попри древність — є значно кращою на нині популярні Таксі-5, Красуню на Всю Голову, і ще що там є зараз.

hetzendorf 
Забанено
Забанено


З нами з: 23.07.15
Востаннє: 02.11.19
Повідомлень: 2572

2019-03-27 17:11  
EvGaS написано:
Саме той випадок, де «Актор однієї ролі». (тобто, одна зіграна роль, проте дуже відома)

Якщо ти про Хізер Грем, то ти глибоко помиляєшся, мабуть «Твін Пікс» не бачив.

Ваш часовий пояс: GMT + 2 Години

Нова тема   Відповісти