Кілер Джо / Killer Joe (2011) 1080p Ukr/Eng | Sub Eng

Нові коментарі

Нова тема   Відповісти
Автор Повідомлення
Anonymous 







2018-08-15 06:55  
Кілер Джо / Killer Joe (2011) 1080p Ukr/Eng | Sub Eng

Кілер Джо / Killer Joe (2011) 1080p Ukr/Eng | Sub Eng


Жанр: трилер, кримінальний, драма
Країна: США



Кінокомпанія: Voltage Pictures, Picture Perfect (I), Worldview Entertainment
Режисер: Вілльям Фрідкін
Актори: Еміль Гірш, Джуно Темпл, Томас Гейден Черч, Меттью МакКонаґі, Джина Ґершон, Ґрейлен Браянт Бенкс, Скотт А. Мартін, Керол Саттон, Денні Еппер, Джефф Ґалпін

Сюжет:
Молодий наркоторговець Кріс Сміт заліз у борги і не має чим розплатитися. Почувши, що його рідна мати, яка їх давно покинула, склала страховий договір на велику суму, він вирішує вбити її. Його батько підтримує його у цьому і вони наймають вбивцю, поліцейського із Далласу Джо Купера. Але у родини немає всієї суми для оплати, тож як завдаток він бере сестру Кріса, Деббі.


Тривалість: 01:42:59
Якість: 1080p
Відео:
кодек:
розмір кадру: 1920х1036
бітрейт: 9 773 кб/с

Аудіо # 1:
мова: українська
переклад: багатоголосий закадровий
кодек: 2.0
бітрейт: 192 кб/с

Аудіо # 2:
мова: англійська
переклад: оригінал
кодек: 5.1
бітрейт: 1510 кб/с

Субтитри:
мова: англійська
тип: програмні (м'які)
формат: PGS
Info
General
Unique ID : 222317594206116953276870226281128595753 (0xA740CFA9CABB41FCAFEE4AF586511129)
Format :
Format version : Version 4 / Version 2
File size : 8.33 GiB
Duration : 1 h 42 min
Overall bit rate : 11.6 Mb/s
Encoded date : UTC 2018-08-15 03:48:02
Writing application : v6.1.0 ('Old Devil') built on Mar 4 2013 09:10:42
Writing library : libebml v1.3.0 + v1.4.0

Video
ID : 1
Format : AVC
Format/Info : Advanced Video Codec
Format profile : [email protected]
Format settings : CABAC / 4 Ref Frames
Format settings, CABAC : Yes
Format settings, ReFrames : 4 frames
Codec ID : V_MPEG4/ISO/AVC
Duration : 1 h 42 min
Bit rate : 9 773 kb/s
Width : 1 920 pixels
Height : 1 036 pixels
Display aspect ratio : 1.85:1
Frame rate mode : Constant
Frame rate : 23.976 (24000/1001) FPS
Color space : YUV
Chroma subsampling : 4:2:0
Bit depth : 8 bits
Scan type : Progressive
Bits/(Pixel*Frame) : 0.205
Stream size : 6.94 GiB (83%)
Writing library : core 155 r2901 7d0ff22
Encoding settings : cabac=1 / ref=4 / deblock=1:-3:-3 / analyse=0x3:0x133 / me=umh / subme=10 / psy=1 / psy_rd=1.00:0.15 / mixed_ref=1 / me_range=40 / chroma_me=1 / trellis=2 / 8x8dct=1 / cqm=0 / deadzone=21,11 / fast_pskip=0 / chroma_qp_offset=-2 / threads=6 / lookahead_threads=1 / sliced_threads=0 / nr=0 / decimate=0 / interlaced=0 / bluray_compat=0 / constrained_intra=0 / bframes=8 / b_pyramid=2 / b_adapt=2 / b_bias=0 / direct=1 / weightb=1 / open_gop=0 / weightp=2 / keyint=240 / keyint_min=23 / scenecut=40 / intra_refresh=0 / rc_lookahead=65 / rc=2pass / mbtree=1 / bitrate=9773 / ratetol=1.0 / qcomp=0.65 / qpmin=0 / qpmax=51 / qpstep=4 / cplxblur=20.0 / qblur=0.5 / vbv_maxrate=62500 / vbv_bufsize=78125 / nal_hrd=none / filler=0 / ip_ratio=1.30 / aq=1:0.75
Language : English
Default : Yes
Forced : No
Statistics Tags Issue : v21.0.0 ('Tardigrades Will Inherit The Earth') 64-bit 2018-03-01 12:59:29 / v6.1.0 ('Old Devil') built on Mar 4 2013 09:10:42 2018-08-15 03:48:02
FromStats_BitRate : 9769699
FromStats_Duration : 01:42:58.965000000
FromStats_FrameCount : 148147
FromStats_StreamSize : 7545829132

Audio #1
ID : 2
Format : AC-3
Format/Info : Audio Coding 3
Codec ID : A_AC3
Duration : 1 h 42 min
Bit rate mode : Constant
Bit rate : 192 kb/s
Channel(s) : 2 channels
Channel positions : Front: L R
Sampling rate : 48.0 kHz
Frame rate : 31.250 FPS (1536 SPF)
Bit depth : 16 bits
Compression mode : Lossy
Stream size : 141 MiB (2%)
Title : UKR (НТН)
Language : Ukrainian
Service kind : Complete Main
Default : Yes
Forced : Yes

Audio #2
ID : 3
Format :
Format/Info : Digital Theater Systems
Codec ID : A_DTS
Duration : 1 h 42 min
Bit rate mode : Constant
Bit rate : 1 510 kb/s
Channel(s) : 6 channels
Channel positions : Front: L C R, Side: L R, LFE
Sampling rate : 48.0 kHz
Frame rate : 93.750 FPS (512 SPF)
Bit depth : 24 bits
Compression mode : Lossy
Stream size : 1.09 GiB (13%)
Title : Original
Language : English
Default : No
Forced : No
Statistics Tags Issue : v21.0.0 ('Tardigrades Will Inherit The Earth') 64-bit 2018-03-01 12:59:29 / v6.1.0 ('Old Devil') built on Mar 4 2013 09:10:42 2018-08-15 03:48:02
FromStats_BitRate : 1509750
FromStats_Duration : 01:42:59.008000000
FromStats_FrameCount : 579282
FromStats_StreamSize : 1166094666

Text #1
ID : 4
Format : PGS
Codec ID : S_HDMV/PGS
Codec ID/Info : Picture based subtitle format used on BDs/HD-DVDs
Language : English
Default : No
Forced : No
Statistics Tags Issue : v21.0.0 ('Tardigrades Will Inherit The Earth') 64-bit 2018-03-01 12:59:29 / v6.1.0 ('Old Devil') built on Mar 4 2013 09:10:42 2018-08-15 03:48:02
FromStats_BitRate : 57740
FromStats_Duration : 01:36:30.791000000
FromStats_FrameCount : 2884
FromStats_StreamSize : 41795629

Text #2
ID : 5
Format : PGS
Codec ID : S_HDMV/PGS
Codec ID/Info : Picture based subtitle format used on BDs/HD-DVDs
Language : English
Default : No
Forced : No
Statistics Tags Issue : v21.0.0 ('Tardigrades Will Inherit The Earth') 64-bit 2018-03-01 12:59:29 / v6.1.0 ('Old Devil') built on Mar 4 2013 09:10:42 2018-08-15 03:48:02
FromStats_BitRate : 60819
FromStats_Duration : 01:37:47.576000000
FromStats_FrameCount : 3090
FromStats_StreamSize : 44607682

Menu
00:00:00.000 : en:00:00:00.000
00:06:01.360 : en:00:06:01.360
00:13:19.798 : en:00:13:19.798
00:20:49.038 : en:00:20:49.038
00:26:16.156 : en:00:26:16.156
00:33:22.083 : en:00:33:22.083
00:38:37.815 : en:00:38:37.815
00:46:41.465 : en:00:46:41.465
00:52:16.007 : en:00:52:16.007
00:56:12.159 : en:00:56:12.159
01:07:01.726 : en:01:07:01.726
01:11:46.051 : en:01:11:46.051
01:18:13.063 : en:01:18:13.063
01:29:14.849 : en:01:29:14.849
01:31:46.375 : en:01:31:46.375
01:34:47.430 : en:01:34:47.430
Скріншоти






За українську доріжку подяка п. AngryBirdsUA
Особиста подяка пану denixx за надану матеріальну допомогу на підтримку цього і майбутніх релізів.
Джерело:


 Трекер:    Зареєстрований   

Завантажити / скачати фільм українською



відео для новачків



 Зареєстрований:   2018-08-15 06:55
 Розмір:   8.33 GB 
 Оцінка фільму:   8.7/10 (Голосів: 7)
   
Інші релізи
   Кілер Джо / Killer Joe (2011) AngryBirdsUA  4 / 0   1.45 GB   2014-10-18 19:19 
Myshko3007 
Свій


З нами з: 16.01.11
Востаннє: 25.09.20
Повідомлень: 64

2018-08-15 11:32  
"Емілі Гірч" на постері це ЕМІЛЬ Гірш, напевно 😀
Ваш часовий пояс: GMT + 2 Години

Нова тема   Відповісти