Вертикальна межа / Вертикальний рубіж / Vertical limit (2000) 1080p 2xUkr/Eng / Sub Eng

Нові коментарі

Нова тема   Відповісти
Автор Повідомлення
staf777 
Відео Гуртом - підтримка та поширення
Відео Гуртом - підтримка та поширення


З нами з: 16.11.16
Востаннє: 24.09.20
Повідомлень: 4034

2018-08-14 18:53  
Вертикальна межа / Вертикальний рубіж / Vertical limit (2000) 1080p 2xUkr/Eng / Sub Eng

Вертикальна межа / Вертикальний рубіж / Vertical limit (2000) 1080p 2xUkr/Eng / Sub Eng


Жанр: пригодницький, трилер
Країна: США, Німеччина



Кінокомпанія: Columbia Pictures Corporation
Режисер: Мартін Кемпбелл /Martin Campbell
Актори: Кріс О'Доннелл /Chris O'Donnell/, Робін Танні /Robin Tunney/, Скотт Гленн /Scott Glenn/, Ізабелла Скорупко /Izabella Scorupco/, Білл Пекстон /Bill Paxton/, Ніколас Лі /Nicholas Lea/ та інші

Сюжет:
Група альпіністів опинилася похованою живцем у міжгір'ї біля вершини К-2, другої після Евересту гори світу. На такій висоті їм залишалося жити лічені години. Шестеро відчайдушних сміливців вирішують піднятися на фатальну позначку, щоб визволити їх із крижаної могили. Але для цього їм доведеться обігнати свою головну суперницю, яка вже спускається по схилах задушливим холодом і несподіваними лавинами — саму смерть.


Тривалість: 02:04:27
Якість:
Відео:
кодек:
розмір кадру: 1920x1040
бітрейт: 7649 кб/с

Аудіо # 1:
мова: українська
переклад: багатоголосий закадровий
кодек: 5.1
бітрейт: 448 кб/с

Аудіо # 2:
мова: українська
переклад: двоголосий закадровий
кодек: 5.1
бітрейт: 448 кб/с

Аудіо # 3:
мова: англійська
переклад: оригінал
кодек: 5.1
бітрейт: 640 кб/с

Субтитри:
мова: англійська
тип: програмні (м'які)
формат: *.srt
Info
General
Unique ID : 96750774938683262872794812858357852007 (0x48C9857E622823D4A7EC373984B52767)
Complete name : G:\Майбутні релізи\Vertical limit (2000) 1080p[2xUkr Eng][Hurtom].
Format :
Format version : Version 4 / Version 2
File size : 7.98 GiB
Duration : 2 h 4 min
Overall bit rate : 9 182 kb/s
Movie name : Vertical limit (2000) 1080p[2xUkr Eng][Hurtom]
Encoded date : UTC 2018-08-15 16:56:44
Writing application : v24.0.0 ('Beyond The Pale') 64-bit
Writing library : libebml v1.3.6 + v1.4.9
Attachments : poster.jpg

Video
ID : 1
Format : AVC
Format/Info : Advanced Video Codec
Format profile : [email protected]
Format settings : CABAC / 4 Ref Frames
Format settings, CABAC : Yes
Format settings, ReFrames : 4 frames
Codec ID : V_MPEG4/ISO/AVC
Duration : 2 h 4 min
Bit rate : 7 649 kb/s
Width : 1 920 pixels
Height : 1 040 pixels
Display aspect ratio : 1.85:1
Frame rate mode : Constant
Frame rate : 23.976 (24000/1001) FPS
Color space : YUV
Chroma subsampling : 4:2:0
Bit depth : 8 bits
Scan type : Progressive
Bits/(Pixel*Frame) : 0.160
Stream size : 6.64 GiB (83%)
Writing library : core 130 r2273 b3065e6
Encoding settings : cabac=1 / ref=4 / deblock=1:0:0 / analyse=0x3:0x113 / me=umh / subme=10 / psy=1 / psy_rd=1.00:0.10 / mixed_ref=1 / me_range=32 / chroma_me=1 / trellis=2 / 8x8dct=1 / cqm=0 / deadzone=21,11 / fast_pskip=0 / chroma_qp_offset=-2 / threads=12 / lookahead_threads=1 / sliced_threads=0 / nr=0 / decimate=0 / interlaced=0 / bluray_compat=0 / constrained_intra=0 / bframes=5 / b_pyramid=2 / b_adapt=2 / b_bias=0 / direct=3 / weightb=1 / open_gop=0 / weightp=2 / keyint=240 / keyint_min=23 / scenecut=40 / intra_refresh=0 / rc=2pass / mbtree=0 / bitrate=7649 / ratetol=1.0 / qcomp=0.60 / qpmin=0 / qpmax=69 / qpstep=4 / cplxblur=20.0 / qblur=0.5 / ip_ratio=1.40 / pb_ratio=1.30 / aq=1:0.80
Language : English
Default : Yes
Forced : No

Audio #1
ID : 2
Format : AC-3
Format/Info : Audio Coding 3
Codec ID : A_AC3
Duration : 2 h 4 min
Bit rate mode : Constant
Bit rate : 448 kb/s
Channel(s) : 6 channels
Channel positions : Front: L C R, Side: L R, LFE
Sampling rate : 48.0 kHz
Frame rate : 31.250 FPS (1536 SPF)
Bit depth : 16 bits
Compression mode : Lossy
Stream size : 399 MiB (5%)
Title : ТРК "Україна"
Language : Ukrainian
Service kind : Complete Main
Default : Yes
Forced : Yes

Audio #2
ID : 3
Format : AC-3
Format/Info : Audio Coding 3
Codec ID : A_AC3
Duration : 2 h 4 min
Bit rate mode : Constant
Bit rate : 448 kb/s
Channel(s) : 6 channels
Channel positions : Front: L C R, Side: L R, LFE
Sampling rate : 48.0 kHz
Frame rate : 31.250 FPS (1536 SPF)
Bit depth : 16 bits
Compression mode : Lossy
Stream size : 399 MiB (5%)
Title : Новий канал
Language : Ukrainian
Service kind : Complete Main
Default : No
Forced : No

Audio #3
ID : 4
Format : AC-3
Format/Info : Audio Coding 3
Codec ID : A_AC3
Duration : 2 h 4 min
Bit rate mode : Constant
Bit rate : 640 kb/s
Channel(s) : 6 channels
Channel positions : Front: L C R, Side: L R, LFE
Sampling rate : 48.0 kHz
Frame rate : 31.250 FPS (1536 SPF)
Bit depth : 16 bits
Compression mode : Lossy
Stream size : 570 MiB (7%)
Language : English
Service kind : Complete Main
Default : No
Forced : No

Text
ID : 5
Format : UTF-8
Codec ID : S_TEXT/UTF8
Codec ID/Info : UTF-8 Plain Text
Duration : 1 h 55 min
Bit rate : 32 b/s
Count of elements : 822
Stream size : 27.8 KiB (0%)
Language : English
Default : No
Forced : No

Menu
00:00:00.000 : :Chapter 1
00:13:25.804 : :Chapter 2
00:16:53.637 : :Chapter 3
00:20:49.373 : :Chapter 4
00:30:36.876 : :Chapter 5
00:37:02.762 : :Chapter 6
00:45:55.085 : :Chapter 7
00:53:45.138 : :Chapter 8
00:59:49.419 : :Chapter 9
01:11:23.696 : :Chapter 10
01:14:17.911 : :Chapter 11
01:24:30.231 : :Chapter 12
01:33:14.338 : :Chapter 13
01:37:07.071 : :Chapter 14
01:44:12.037 : :Chapter 15
01:52:46.342 : :Chapter 16
Скріншоти




Подяка Romario_O, Merdiff, ratbol, _oles за звукові доріжки та Тирік за постер.
Джерело: &
Особиста оцінка: 0 - не дивився


Срібний реліз (на рейтинг впливає 50% завантаженого)
 Трекер:    Зареєстрований   

Завантажити / скачати фільм українською



відео для новачків



 Зареєстрований:   2018-08-15 20:27
 Розмір:   7.98 GB 
 Оцінка фільму:   8.9/10 (Голосів: 7)
   
bot 
робот


З нами з: 30.09.07
Востаннє: 26.05.05
Повідомлень: 25602

2018-08-15 20:27  
Тему перенесено з Анонси релізів до форуму Фільми в HD


staf777

Ваш часовий пояс: GMT + 2 Години

Нова тема   Відповісти