Білосніжка та семеро гномів / Білосніжка і сім гномів / Snow White and the Seven Dwarfs (1937) Remux 1080p 3xUkr/2xEng | Sub 2xUkr/Eng

Нові коментарі

Нова тема   Відповісти
Автор Повідомлення
urij546724 
Відео Гуртом - фільмокрай
Відео Гуртом - фільмокрай


З нами з: 16.03.10
Востаннє: 23.05.19
Повідомлень: 5522

2018-08-14 17:12  
Білосніжка та семеро гномів / Білосніжка і сім гномів / Snow White and the Seven Dwarfs (1937) Remux 1080p 3xUkr/2xEng | Sub 2xUkr/Eng

Білосніжка та семеро гномів / Білосніжка і сім гномів / Snow White and the Seven Dwarfs (1937) Remux 1080p 3xUkr/2xEng | Sub 2xUkr/Eng


Жанр: анімація, фентезі, сімейний, романтичний, музичний
Країна: США



Кіностудія / кінокомпанія: Walt Disney Productions
Режисери: Вілльям Коттрелл (William Cottrell), Девід Ганд (David Hand), Вілфред Джексон (Wilfred Jackson), Ларрі Морей (Larry Morey), Пірс Пірч (Perce Pearce), Бен Шарпстін (Ben Sharpsteen)
Актори: Адріана Каселотті (Adriana Caselotti), Люсілль Ла Верн (Lucille La Verne), Гаррі Стоквелл (Harry Stockwell), Рой Атвелл (Roy Atwell), Стюарт Б'юкенен (Stuart Buchanan), Едді Коллінс (Eddie Collins), Пінто Колвіґ (Pinto Colvig), Біллі Ґілберт (Billy Gilbert), Отіс Гарлан (Otis Harlan), Мороні Олсен (Moroni Olsen)...

Сюжет:
У принцеси Білосніжки була зла мачуха-королева. Мачуха вважала себе найвродливішою жінкою в світі, тому була обурена, коли довідалася, що її падчерка вродливіша. Вона наказала лісникові відвести дівчину до лісу і вкоротити їй віку. Та у лісничого забракло сміливості позбавити життя Білосніжку, тому він дозволив їй утекти.
Блукаючи лісом, Білосніжка натрапила на порожній будиночок, у котрому незабаром з'явилися семеро гномів-шахтарів. Білосніжка стала жити в них, пораючись на кухні, перучи і доглядаючи за будиночком та виховуючи гномів.
Коли про це довідалася мачуха, вона підкинула Білосніжці отруєне яблуко. Лише трохи відкусивши яблуко, дівчина впала як мертва...


Тривалість: 01:23:11
Якість: Remux 1080p
Відео:
кодек:
розмір кадру: 1920 х 1080
бітрейт: ~24072 кб/с (змінний)
частота кадрів: 23.976 к/с (fps)

Аудіо #1:
мова: українська
переклад: професійний дубльований
кодек: 2.0 (стерео)
бітрейт: 224 кб/с
запис звуку з каналу: Disney Channel
дубльовано: LeDoyen Studio

Аудіо #2:
мова: українська
переклад: багатоголосий закадровий
кодек: 2.0
бітрейт: 192 кб/с
запис звуку з каналу: ТВ4
озвучено: Медіа Дім Рава

Аудіо #3:
мова: українська
переклад: багатоголосий закадровий
кодек: 5.1
бітрейт: 384 кб/с
запис звуку з: касети VHS
озвучено: Так Треба Продакшн на замовлення відеокомпаніїї "ВІKКОН"

Аудіо #4:
мова: українська
переклад: професійний дубльований
кодек: 5.1 (псевдо-5.1, якість запису з ТБ гірша, ніж з Disney Channel)
бітрейт: 384 кб/с
запис звуку з каналу: Новий канал
дубльовано: LeDoyen Studio

Аудіо #5:
мова: англійська
переклад: оригінал
кодек: -HD MA 7.1
бітрейт: 3730 кб/с

Аудіо #5:
мова: англійська
переклад: оригінал
кодек: 2.0
бітрейт: 192 кб/с
примітка: коментарі Роя Дизнея і Джона Кейнмейкера

Субтитри #1:
мова: українська
тип: програмні (м'які)
формат: *.srt

Субтитри #2 (на коментарі):
мова: українська
тип: програмні (м'які)
формат: *.srt

Субтитри #3:
мова: англійська
тип: програмні (м'які)
формат: *.srt

Субтитри #4 (SHD):
мова: англійська
тип: програмні (м'які)
формат: *.srt
Media info:
General
Unique ID : 175547064527601927611057710574987825464 (0x84112283B6D3A3679F3729DE8BFAD138)
Format :
Format version : Version 2
File size : 16.9 GiB
Duration : 1 h 23 min
Overall bit rate mode : Variable
Overall bit rate : 29.1 Mb/s
Movie name : Snow White and the Seven Dwarfs (1937) [ukr.3Ukr_2xEng, sub 2xUkr_2xEng] Remux 1080p [Hurtom] by urij546724
Encoded date : UTC 2018-08-14 13:20:53
Writing application : v2.9.7 ('Tenderness') built on Jul 1 2009 18:43:35
Writing library : libebml v0.7.7 + v0.8.1
Attachments : Snow White and the Seven Dwarfs (1937) [ukr.3Ukr_2xEng, sub 2xUkr_2xEng] Remux 1080p [Hurtom] by urij546724.jpg

Video
ID : 1
Format : AVC
Format/Info : Advanced Video Codec
Format profile : [email protected]
Format settings : CABAC / 4 Ref Frames
Format settings, CABAC : Yes
Format settings, ReFrames : 4 frames
Muxing mode : Container [email protected]
Codec ID : V_MPEG4/ISO/AVC
Duration : 1 h 23 min
Bit rate mode : Variable
Maximum bit rate : 34.4 Mb/s
Width : 1 920 pixels
Height : 1 080 pixels
Display aspect ratio : 16:9
Frame rate mode : Constant
Frame rate : 23.976 (24000/1001) FPS
Color space : YUV
Chroma subsampling : 4:2:0
Bit depth : 8 bits
Scan type : Progressive
Title : Snow White and the Seven Dwarfs (1937) Remux 1080p [Hurtom] by urij546724
Language : English
Default : Yes
Forced : No
Color range : Limited
Color primaries : BT.709
Transfer characteristics : BT.709
Matrix coefficients : BT.709

Audio #1
ID : 2
Format : AC-3
Format/Info : Audio Coding 3
Codec ID : A_AC3
Duration : 1 h 23 min
Bit rate mode : Constant
Bit rate : 224 kb/s
Channel(s) : 2 channels
Channel positions : Front: L R
Sampling rate : 48.0 kHz
Frame rate : 31.250 FPS (1536 SPF)
Bit depth : 16 bits
Compression mode : Lossy
Stream size : 133 MiB (1%)
Title : Українська доріжка (Дубляж студії LeDoyen Studio) 2.0
Language : Ukrainian
Service kind : Complete Main
Default : Yes
Forced : Yes

Audio #2
ID : 3
Format : AC-3
Format/Info : Audio Coding 3
Codec ID : A_AC3
Duration : 1 h 23 min
Bit rate mode : Constant
Bit rate : 192 kb/s
Channel(s) : 2 channels
Channel positions : Front: L R
Sampling rate : 48.0 kHz
Frame rate : 31.250 FPS (1536 SPF)
Bit depth : 16 bits
Compression mode : Lossy
Stream size : 114 MiB (1%)
Title : Українська доріжка (Медіа Дім Рава)
Language : Ukrainian
Service kind : Complete Main
Default : No
Forced : No

Audio #3
ID : 4
Format : AC-3
Format/Info : Audio Coding 3
Codec ID : A_AC3
Duration : 1 h 23 min
Bit rate mode : Constant
Bit rate : 384 kb/s
Channel(s) : 6 channels
Channel positions : Front: L C R, Side: L R, LFE
Sampling rate : 48.0 kHz
Frame rate : 31.250 FPS (1536 SPF)
Bit depth : 16 bits
Compression mode : Lossy
Stream size : 228 MiB (1%)
Title : Українська доріжка (ТекТребаПродакшн на замовлення відео-компаніїї ВІКОН)
Language : Ukrainian
Service kind : Complete Main
Default : No
Forced : No

Audio #4
ID : 5
Format : AC-3
Format/Info : Audio Coding 3
Codec ID : A_AC3
Duration : 1 h 23 min
Bit rate mode : Constant
Bit rate : 384 kb/s
Channel(s) : 6 channels
Channel positions : Front: L C R, Side: L R, LFE
Sampling rate : 48.0 kHz
Frame rate : 31.250 FPS (1536 SPF)
Bit depth : 16 bits
Compression mode : Lossy
Delay relative to video : 30 ms
Stream size : 228 MiB (1%)
Title : Українська доріжка (Дубляж студії LeDoyen Studio) 5.1
Language : Ukrainian
Service kind : Complete Main
Default : No
Forced : No

Audio #5
ID : 6
Format :
Format/Info : Digital Theater Systems
Format profile : MA / Core
Codec ID : A_DTS
Duration : 1 h 23 min
Bit rate mode : Variable / Constant
Bit rate : Unknown / 1 509 kb/s
Channel(s) : 8 channels / 6 channels
Channel positions : Front: L C R, Side: L R, Back: L R, LFE / Front: L C R, Side: L R, LFE
Sampling rate : 48.0 kHz
Frame rate : 93.750 FPS (512 SPF)
Bit depth : 24 bits
Compression mode : Lossless / Lossy
Title : Оригінальна доріжка
Language : English
Default : No
Forced : No

Audio #6
ID : 7
Format : AC-3
Format/Info : Audio Coding 3
Codec ID : A_AC3
Duration : 1 h 23 min
Bit rate mode : Constant
Bit rate : 192 kb/s
Channel(s) : 2 channels
Channel positions : Front: L R
Sampling rate : 48.0 kHz
Frame rate : 31.250 FPS (1536 SPF)
Bit depth : 16 bits
Compression mode : Lossy
Stream size : 114 MiB (1%)
Title : Оригінальна доріжка (коментарі англійською)
Language : English
Service kind : Complete Main
Default : No
Forced : No

Text #1
ID : 8
Format : UTF-8
Codec ID : S_TEXT/UTF8
Codec ID/Info : UTF-8 Plain Text
Title : Українські субтитри
Language : Ukrainian
Default : Yes
Forced : No

Text #2
ID : 9
Format : UTF-8
Codec ID : S_TEXT/UTF8
Codec ID/Info : UTF-8 Plain Text
Title : Українські субтитри (на коментарі)
Language : Ukrainian
Default : No
Forced : No

Text #3
ID : 10
Format : UTF-8
Codec ID : S_TEXT/UTF8
Codec ID/Info : UTF-8 Plain Text
Title : Оригінальні субтитри
Language : English
Default : No
Forced : No

Text #4
ID : 11
Format : UTF-8
Codec ID : S_TEXT/UTF8
Codec ID/Info : UTF-8 Plain Text
Title : Оригінальні субтитри (SDH)
Language : English
Default : No
Forced : No

Menu
00:00:00.000 : :01. Opening Credits
00:01:22.708 : :02. Once Upon a Time
00:02:11.965 : :03. The Magic Mirror
00:03:35.507 : :04. "I'm Wishing"
00:05:25.825 : :05. The Prince ("One Song")
00:07:00.045 : :06. The Queen's Evil Plan
00:09:11.426 : :07. Flight Through the Forest
00:11:34.736 : :08. "With a Smile and a Song"
00:14:56.979 : :09. The Dwarfs' Cottage
00:17:38.349 : :10. "Whistle While You Work"
00:21:25.284 : :11. "Heigh-Ho"
00:24:09.156 : :12. Snow White Explores Upstairs
00:25:29.820 : :13. The Dwarfs Arrive Home
00:34:55.427 : :14. Snow White Wakes Up
00:42:47.398 : :15. "Bluddle-Uddle-Um-Dum"
00:47:49.408 : :16. Deceived
00:49:15.828 : :17. The Queen Prepares A Disguise
00:52:02.119 : :18. "The Dwarfs' Yodel Song"
00:56:49.448 : :19. "Some Day My Prince Will Come"
00:58:53.321 : :20. Settling Down for the Night
01:02:38.797 : :21. The Poison Apple
01:05:40.937 : :22. The Next Morning
01:08:24.559 : :23. The Old Peddler Woman
01:11:41.297 : :24. The Animals Warn the Dwarfs
01:14:08.903 : :25. The Apple
01:17:42.992 : :26. A Bedside Vigil
01:20:27.614 : :27. Love's First Kiss
Скріншоти:





Трейлер:

Семпл
Джерело 1_________Джерело 2_________Джерело 3_________Джерело 4_________Джерело 5
У випадку, якщо з усіх джерел семпл видалять, прохання повідомити мені у ПРИВАТ


Подяки:

1. Пану urij546724, Пану gig_Panas і Пану MutuLI за запис звуку.
2. Пану vizzi за постер.


Джерело:


Золотий реліз (завантажене не впливає на рейтинг)
 Трекер:    Зареєстрований   

Завантажити / скачати мультфільм українською



відео для новачків



 Зареєстрований:   2018-08-14 17:12
 Розмір:   16.92 GB 
 Оцінка мультфільму:   9.8/10 (Голосів: 6)
 Прохання залишати коментарі і не тікати з роздачі.
   
leicheman 
Попереджень: 1
Попереджень: 1 


З нами з: 03.07.14
Востаннє: 24.05.19
Повідомлень: 3648

2018-08-14 17:20  
urij546724 написано:
Аудіо #4:

там псевдо 5.1 ?

urij546724 
Відео Гуртом - фільмокрай
Відео Гуртом - фільмокрай


З нами з: 16.03.10
Востаннє: 23.05.19
Повідомлень: 5522

2018-08-14 17:40  
leicheman написано:
там псевдо 5.1 ?

Скоріш за все. Додав як і в попередніх роздачах. Але оригіналу наче ніде не чути, тож зроблено якісно.

armogun 
Попереджень: 1
Попереджень: 1 


З нами з: 04.05.13
Востаннє: 23.05.19
Повідомлень: 477

2018-08-24 14:16  
Це шедевр ! Тільки звук на оригіналі слухайте! Це просто супер
armogun 
Попереджень: 1
Попереджень: 1 


З нами з: 04.05.13
Востаннє: 23.05.19
Повідомлень: 477

2018-09-19 22:07  
Яке 5.1 ? Тоді і стерео небуло
urij546724 
Відео Гуртом - фільмокрай
Відео Гуртом - фільмокрай


З нами з: 16.03.10
Востаннє: 23.05.19
Повідомлень: 5522

2018-09-29 15:16  
armogun написано:
Яке 5.1 ? Тоді і стерео небуло

Почитайте літературу, у старих фільмах уже давно реставрують доріжки.
Це таке ж дурне пипущення, якби ви сказали "Який блурей, їх тоді не було"

armogun 
Попереджень: 1
Попереджень: 1 


З нами з: 04.05.13
Востаннє: 23.05.19
Повідомлень: 477

2018-10-02 20:46  
urij546724
Ага, кулька надута повітрям залишається кулькою. А може доступний інструментарій який може відділити звуки довкілля і кинути їх на інший канал?

Ваш часовий пояс: GMT + 2 Години

Нова тема   Відповісти