Моссад / HaMidrasha (Сезон 2) (2017) 1080p

Нові коментарі

Нова тема   Відповісти
Автор Повідомлення
sergiyko.5 
VIP


З нами з: 25.02.16
Востаннє: 15.12.18
Повідомлень: 1994

2018-08-14 06:17  
Моссад / HaMidrasha (Сезон 2) (2017) 1080p


Моссад / HaMidrasha (Сезон 2) (2017) 1080p

Жанр: екшн, драма
Країна: Ізраїль
Кінокомпанія: Sumayoko, Reshet Broadcasting
Режисер: Даніель Сиркін
Актори: Єгуда Леві (Йона Гарарі), Йорам Гаон (Саймон), Лерон Вейсман (Авігайль), Шай Авиви (Міха Шустер), Хана Ласло (Доріс)

Сюжет:
У серіалі розповідається про те, як готують спецагентів однієї з найефективніших і найсекретніших розвідок світу, де вони проходять тренування, хто вчить їх майстерності розвідки і як служба змінює їхні особистість і моральні цінності.

За сюжетом головний герой стрічки Йона Гарар (Йехуда Леві) - один з найкращих агентів організації. Йому доручено підготувати новобранців, яких він тренуватиме на новому, суперсучасному полігоні, що дозволяє працювати в реальних умовах. Щоб виявити здібності кожного курсанта, він постійно влаштовує їм випробування на межі фізичних і психологічних здатностей.




Тривалість: 1 серія: 44:01 (цілком серій: 12 з 12)
Якість:

Відео: кодек: розмір кадру: 1920 х 1080 бітрейт: ~ 4100 кб/с
Аудіо: мова: українська переклад: багатоголосий закадровий кодек: 2.0 бітрейт: 256 кб/с
Джерело озвучення:

Примітка:
1. Cерія 4 має першою доріжку запису з супутника, через те що звук оригінальної озвучки перекрикує голоси українського перекладу.
2. Серія 8 має якість 576p.
Перелік серій:
01. Урок 1. Містер і місіс Ікс.
02. Урок 2. Протокол саркофаг.
03. Урок 3. Спроба вербування.
04. Урок 4. Знак.
05. Урок 5. Феєрверки.
06. Урок 6. Я ще прийду на твій поріг
07. Урок 7. Крайній Харірі
08. Епізод 8. Створення довіри
09. Епізод 9. Посланець
10. Епізод 10. Поминальна молитва
11. Епізод 11. Крива кришка для розбитого казана
12. Епізод 12. Прощати по божому
Про файл:
General
Unique ID : 12495106540790698095530846878767528813 (0x9667850E7D697A3137572754B6C3B6D)
Complete name : F:\Content\FILMS\HaMidrasha S02 1080p \HaMidrasha.S02E01.1080p..
Format :
Format version : Version 4 / Version 2
File size : 1.36 GiB
Duration : 44 min 1 s
Overall bit rate : 4 422 kb/s
Encoded date : UTC 2018-08-14 04:11:54
Writing application : v24.0.0 ('Beyond The Pale') 64-bit
Writing library : libebml v1.3.6 + v1.4.9

Video
ID : 1
Format : AVC
Format/Info : Advanced Video Codec
Format profile : [email protected]
Format settings : CABAC / 6 Ref Frames
Format settings, CABAC : Yes
Format settings, ReFrames : 6 frames
Codec ID : V_MPEG4/ISO/AVC
Duration : 44 min 1 s
Bit rate : 4 164 kb/s
Width : 1 920 pixels
Height : 1 080 pixels
Display aspect ratio : 16:9
Frame rate mode : Constant
Frame rate : 25.000 FPS
Color space : YUV
Chroma subsampling : 4:2:0
Bit depth : 8 bits
Scan type : Progressive
Bits/(Pixel*Frame) : 0.080
Stream size : 1.28 GiB (94%)
Writing library : core 142 r2491 24e4fed
Encoding settings : cabac=1 / ref=6 / deblock=1:0:0 / analyse=0x3:0x113 / me=hex / subme=7 / psy=1 / psy_rd=1.00:0.00 / mixed_ref=1 / me_range=16 / chroma_me=1 / trellis=1 / 8x8dct=1 / cqm=0 / deadzone=21,11 / fast_pskip=1 / chroma_qp_offset=-2 / threads=12 / lookahead_threads=2 / sliced_threads=0 / nr=0 / decimate=1 / interlaced=0 / bluray_compat=0 / constrained_intra=0 / bframes=3 / b_pyramid=2 / b_adapt=1 / b_bias=0 / direct=1 / weightb=1 / open_gop=0 / weightp=2 / keyint=100 / keyint_min=10 / scenecut=40 / intra_refresh=0 / rc_lookahead=40 / rc=crf / mbtree=1 / crf=22.0 / qcomp=0.60 / qpmin=0 / qpmax=69 / qpstep=4 / vbv_maxrate=10000 / vbv_bufsize=20000 / crf_max=0.0 / nal_hrd=none / filler=0 / ip_ratio=1.41 / aq=1:1.00
Language : English
Default : Yes
Forced : No

Audio
ID : 2
Format :
Format/Info : Advanced Audio Codec
Format profile : LC
Codec ID : A_AAC-2
Duration : 44 min 1 s
Bit rate : 256 kb/s
Channel(s) : 2 channels
Channel positions : Front: L R
Sampling rate : 44.1 kHz
Frame rate : 43.066 FPS (1024 SPF)
Compression mode : Lossy
Delay relative to video : -80 ms
Stream size : 80.6 MiB (6%)
Language : Ukrainian
Default : Yes
Forced : No
Скріншоти:


Бронзовий реліз (на рейтинг впливає 75% завантаженого)
 Трекер:    Зареєстрований   

Завантажити / скачати серіал українською



відео для новачків



 Зареєстрований:   2018-09-16 10:06
 Розмір:   13.52 GB 
 Оцінка серіалу:   8.2/10 (Голосів: 5)
   
kkostiki 
Частий відвідувач


З нами з: 06.09.10
Востаннє: 14.12.18
Повідомлень: 46

2018-08-14 19:58  
Дивно... країна Ізраіль, а на скрінах Ауді на Укр номерах...
sergiyko.5 
VIP


З нами з: 25.02.16
Востаннє: 15.12.18
Повідомлень: 1994

2018-08-16 21:09  
Додав третю серію.
ggSham 
Новенький


З нами з: 30.04.18
Востаннє: 14.12.18
Повідомлень: 2

2018-08-16 22:00  
kkostiki написано:
Дивно... країна Ізраіль, а на скрінах Ауді на Укр номерах...

а «Батьківщина-Мати»?

а перший сезон є у перекладі?
не можу знайти у пошуку

Neytreenor 
Відео Гуртом - запис з ТБ
Відео Гуртом - запис з ТБ


З нами з: 03.04.11
Востаннє: 15.12.18
Повідомлень: 1514

2018-08-16 22:05  
ggSham написано:
а перший сезон є у перекладі?
не можу знайти у пошуку

https://toloka.to/t76960

ggSham 
Новенький


З нами з: 30.04.18
Востаннє: 14.12.18
Повідомлень: 2

2018-08-16 22:08  
Neytreenor

Дякую

JohnyG 
Новенький


З нами з: 27.10.16
Востаннє: 18.10.18
Повідомлень: 1

2018-08-21 09:16  
Дякую!
sergiyko.5 
VIP


З нами з: 25.02.16
Востаннє: 15.12.18
Повідомлень: 1994

2018-08-23 08:12  
Додав 5-6 серії.
sergiyko.5 
VIP


З нами з: 25.02.16
Востаннє: 15.12.18
Повідомлень: 1994

2018-09-16 10:08  
Додав 7-12 серії.
Серія 8 має якість 576p.

Ваш часовий пояс: GMT + 2 Години

Нова тема   Відповісти