Моссад / HaMidrasha (Сезон 2, 2 серії з 12) (2017) SATRemux

Нові коментарі

Нова тема   Відповісти
Останній раз роздавалося yuriyzdes (2018-11-11)
Автор Повідомлення
sergiyko.5 
VIP


З нами з: 25.02.16
Востаннє: 17.11.18
Повідомлень: 1891

2018-08-14 06:01  
Моссад / HaMidrasha (Сезон 2) (2017) SATRemux


Моссад / HaMidrasha (Сезон 2, 2 серії з 12) (2017) SATRemux

Жанр: екшн, драма
Країна: Ізраїль
Кінокомпанія: Sumayoko, Reshet Broadcasting
Режисер: Даніель Сиркін
Актори: Єгуда Леві (Йона Гарарі), Йорам Гаон (Саймон), Лерон Вейсман (Авігайль), Шай Авиви (Міха Шустер), Хана Ласло (Доріс)

Сюжет:
У серіалі розповідається про те, як готують спецагентів однієї з найефективніших і найсекретніших розвідок світу, де вони проходять тренування, хто вчить їх майстерності розвідки і як служба змінює їхні особистість і моральні цінності.

За сюжетом головний герой стрічки Йона Гарар (Йехуда Леві) - один з найкращих агентів організації. Йому доручено підготувати новобранців, яких він тренуватиме на новому, суперсучасному полігоні, що дозволяє працювати в реальних умовах. Щоб виявити здібності кожного курсанта, він постійно влаштовує їм випробування на межі фізичних і психологічних здатностей.




Тривалість: 1 серія: ~ 42 хв. (цілком серій 2 з 12)
Якість: SATRemux

Відео: кодек: MPEG2 розмір кадру: 720 х 576 бітрейт: ~ 1 600 кб/с
Аудіо: мова: українська переклад: багатоголосий закадровий кодек: MP2 2.0 бітрейт: 192 кб/с
Джерело озвучення:
Перелік серій:
Епізод 1
Епізод 2
Про файл:
General
Complete name : F:\Content\FILMS\HaMidrasha S02 SATRemux\HaMidrasha.S02E01.SATRemux.mpg
Format : MPEG-PS
File size : 780 MiB
Duration : 43 min 26 s
Overall bit rate mode : Variable
Overall bit rate : 2 512 kb/s

Video
ID : 224 (0xE0)
Format : MPEG Video
Format version : Version 2
Format profile : [email protected]
Format settings : CustomMatrix / BVOP
Format settings, BVOP : Yes
Format settings, Matrix : Custom
Format settings, GOP : Variable
Format settings, picture st : Frame
Duration : 43 min 26 s
Bit rate mode : Variable
Bit rate : 2 270 kb/s
Maximum bit rate : 15.0 Mb/s
Width : 720 pixels
Height : 576 pixels
Display aspect ratio : 16:9
Active Format Description : Full frame 16:9 image
Frame rate : 25.000 FPS
Standard : PAL
Color space : YUV
Chroma subsampling : 4:2:0
Bit depth : 8 bits
Scan type : Interlaced
Scan order : Top Field First
Compression mode : Lossy
Bits/(Pixel*Frame) : 0.219
Time code of first frame : 00:00:00:00
Time code source : Group of pictures header
GOP, Open/Closed : Open
Stream size : 705 MiB (90%)

Audio
ID : 192 (0xC0)
Format : MPEG Audio
Format version : Version 1
Format profile : Layer 2
Duration : 43 min 26 s
Bit rate mode : Constant
Bit rate : 192 kb/s
Channel(s) : 2 channels
Sampling rate : 48.0 kHz
Frame rate : 41.667 FPS (1152 SPF)
Compression mode : Lossy
Delay relative to video : 22 ms
Stream size : 59.7 MiB (8%)
Скріншоти:


Автор запису: sergiyko


Бронзовий реліз (на рейтинг впливає 75% завантаженого)
 Трекер:    Зареєстрований   

Завантажити / скачати серіал українською



відео для новачків



 Зареєстрований:   2018-08-15 09:08
 Розмір:   1.47 GB 
 Оцінка серіалу:   10/10 (Голосів: 3)
   
sergiyko.5 
VIP


З нами з: 25.02.16
Востаннє: 17.11.18
Повідомлень: 1891

2018-08-15 09:08  
Додав 2 серію.
Ваш часовий пояс: GMT + 2 Години

Нова тема   Відповісти