Нелла - принцеса-лицар / Nella the Princess Knight (Сезон 1) (2017) 1080p

Нові коментарі

Нова тема   Відповісти
Автор Повідомлення
sergiyko.5 
Забанено
Забанено


З нами з: 25.02.16
Востаннє: 29.10.20
Повідомлень: 3648

2018-08-14 00:29  
Нелла - принцеса-лицар / Nella the Princess Knight (Сезон 1) (2017) 1080p


Нелла - принцеса-лицар / Nella the Princess Knight (Сезон 1) (2017) 1080p

Жанр: фентезі, пригоди
Країна: Ірландія
Режисер: Джез Холл, Джилі Долєв

Сюжет:
Нелла зовсім не схожа на інших принцес, вона - справжній лицар і дуже хоробра 8-річна дівчинка. Захищає свій дім, батьків, сестру і королівство не словом, а ділом. А королівство населяють не тільки люди, а й магічні істоти: мінотаври, дракони, орки. І не всі з них хочуть бути доброзичливими. Коли з'являється небезпека, принцеса-лицар одягає обладунки, сідлає свого скакуна-єдинорога і вирушає в дорогу. Втім, з вірними помічниками і відкритою душею Нелла знайде вихід з будь-якої ситуації!




Тривалість: 1 серія: 22:31 (цілком серій: 40 з 40)
Якість:

Відео: кодек: розмір кадру: 1920 х 1080 бітрейт: ~ 3100 кб/с
Аудіо: мова: українська переклад: професійний дубльований кодек: 2.0 бітрейт: 256 кб/с
Джерело озвучення:
Перелік серій

01.На добраніч, драконе / Схованки в замку
02.Сер Клод / Ніхто не спить
03.Оркестр принцеси Нелли / Гра Блейна
04.Новенька в Королівстві / Великий сюрприз
05.Для цього і потрібні друзі / Кавунова халепа
06.Драконяча дружба / Смачнолівська сливка
07.Помилка Флеттера / Сюрприз у боулінгу
08.Поєдинок на Блиск фесті / День блискучих бризок
09.Лицарська картка сера Тренера / Вигадка лицаря
10.Третій зайвий / Поглянь на все по іншому
11.Без сукні і корони не можна / Клод Моне
12.По-королівськи чудовий пляжний день / Друзями не командують
13.Ярмарок-обмін / Талановиті копита
14.Метелики і дракони / Карети, візки і гігантомобілі
15.Нелла і злий чаклун
16.Ідеальний родинний портрет Нелли / Велетенська проблема
17.Встигнути на вечірки / Велика малююча зірка
18.Гелловінський гіпогриф / Король Горк Перший
19.Трінкет на роликах / Хоробрий дракон
20.Похід сера Тренера / Дракон-лицар
21.Флаттер 2.0/ Черга на трьох
22.Наймодніша серед усіх / Тренування - це розвиток
23.Ніч перед Різдвом
24.Потрібен сніг / Вперед, драконики
25.Полювання Блейна на значки / Зізнання Трінкет
26.Лови хвилю / Гігантська подорож
27.Заплутана пригода / Подарункова битва у Каслхевені
28.Хитрощі обміну / Змагання смаків
29.Блискуча пригода / Драконів квач
30.День, коли забрали музику / Сусідство з Клодом
31.Королівський день матері / Дитяче свято-катастрофа
32.Герцог Сяйвобурзький / Альпінізм по-королівськи
33.Квест у замку / Спостереження за звірятами
34.Озерна єдиноріжка / Іграшковий клопіт Трінкет
35.Нелла - принцеса лицар 139 серія. Щасливий кінець / Один, два, перетворюйтеся
36.The Bravie Awards-The Museum of Knightly Magic
37.Трінкет завмерла / Для друга що завгодно!
38.Принцеса-лицар ніколи не здається / Перемога не головне
39.Лицарські перегони / Лицар, який кричав "морський монстр"
40.Відважна карета / Група порятунку Каслхевену
Про файл:
General
Unique ID : 235130144884811774137176261189135558514 (0xB0E46B2F046CC00A0DF678A7F560E772)
Complete name : E:\MULTFILMS\Nella the Princess Knight S01 1080p \S01E01.Knighty Knight Dragons-Inside and Seek.1080p..
Format :
Format version : Version 4 / Version 2
File size : 542 MiB
Duration : 22 min 31 s
Overall bit rate : 3 368 kb/s
Encoded date : UTC 2018-08-13 21:18:58
Writing application : v24.0.0 ('Beyond The Pale') 64-bit
Writing library : libebml v1.3.6 + v1.4.9

Video
ID : 1
Format : AVC
Format/Info : Advanced Video Codec
Format profile : [email protected]
Format settings : CABAC / 6 Ref Frames
Format settings, CABAC : Yes
Format settings, ReFrames : 6 frames
Codec ID : V_MPEG4/ISO/AVC
Duration : 22 min 31 s
Bit rate : 3 110 kb/s
Width : 1 920 pixels
Height : 1 080 pixels
Display aspect ratio : 16:9
Frame rate mode : Constant
Frame rate : 25.000 FPS
Color space : YUV
Chroma subsampling : 4:2:0
Bit depth : 8 bits
Scan type : Progressive
Bits/(Pixel*Frame) : 0.060
Stream size : 501 MiB (92%)
Writing library : core 142 r2491 24e4fed
Encoding settings : cabac=1 / ref=6 / deblock=1:0:0 / analyse=0x3:0x113 / me=hex / subme=7 / psy=1 / psy_rd=1.00:0.00 / mixed_ref=1 / me_range=16 / chroma_me=1 / trellis=1 / 8x8dct=1 / cqm=0 / deadzone=21,11 / fast_pskip=1 / chroma_qp_offset=-2 / threads=12 / lookahead_threads=2 / sliced_threads=0 / nr=0 / decimate=1 / interlaced=0 / bluray_compat=0 / constrained_intra=0 / bframes=3 / b_pyramid=2 / b_adapt=1 / b_bias=0 / direct=1 / weightb=1 / open_gop=0 / weightp=2 / keyint=100 / keyint_min=10 / scenecut=40 / intra_refresh=0 / rc_lookahead=40 / rc=crf / mbtree=1 / crf=22.0 / qcomp=0.60 / qpmin=0 / qpmax=69 / qpstep=4 / vbv_maxrate=10000 / vbv_bufsize=20000 / crf_max=0.0 / nal_hrd=none / filler=0 / ip_ratio=1.41 / aq=1:1.00
Language : English
Default : Yes
Forced : No

Audio
ID : 2
Format :
Format/Info : Advanced Audio Codec
Format profile : LC
Codec ID : A_AAC-2
Duration : 22 min 31 s
Bit rate : 256 kb/s
Channel(s) : 2 channels
Channel positions : Front: L R
Sampling rate : 44.1 kHz
Frame rate : 43.066 FPS (1024 SPF)
Compression mode : Lossy
Delay relative to video : -80 ms
Stream size : 41.2 MiB (8%)
Language : Ukrainian
Default : Yes
Forced : No
Скріншоти:


Запис: sergiyko


Бронзовий реліз (на рейтинг впливає 75% завантаженого)
 Трекер:    Зареєстрований   

Завантажити / скачати мультфільм українською



відео для новачків



 Зареєстрований:   2019-02-19 12:51
 Розмір:   18.37 GB 
 Оцінка мультсеріалу:   10/10 (Голосів: 11)
   
sergiyko.5 
Забанено
Забанено


З нами з: 25.02.16
Востаннє: 29.10.20
Повідомлень: 3648

2018-10-02 11:51  
Додав нові серії.
YouRockBoy 
Новенький


З нами з: 30.11.16
Востаннє: 15.04.21
Повідомлень: 3

2018-11-08 17:55  
Дякую! Викачав і приєднуюсь до роздачі!))
sergiyko.5 
Забанено
Забанено


З нами з: 25.02.16
Востаннє: 29.10.20
Повідомлень: 3648

2019-02-19 12:52  
Додав відсутні серії.
Ваш часовий пояс: GMT + 2 Години

Нова тема   Відповісти