Нелла - принцеса-лицар / Nella the Princess Knight (Сезон 1, серій 12 з 37) (2017) 720p Ukr/Eng | sub Eng

Нові коментарі

Нова тема   Відповісти
Останній раз роздавалося coltojkee (2021-04-15)
Автор Повідомлення
sergiyko.5 
Забанено
Забанено


З нами з: 25.02.16
Востаннє: 29.10.20
Повідомлень: 3648

2018-08-13 23:41  
Нелла - принцеса-лицар / Nella the Princess Knight (Сезон 1) (2017) 720p Ukr/Eng | sub Eng


Нелла - принцеса-лицар / Nella the Princess Knight (Сезон 1, серій 12 з 37) (2017) 720p Ukr/Eng | sub Eng

Жанр: фентезі, пригоди
Країна: Ірландія
Режисер: Джез Холл, Джилі Долєв

Сюжет:
Нелла зовсім не схожа на інших принцес, вона - справжній лицар і дуже хоробра 8-річна дівчинка. Захищає свій дім, батьків, сестру і королівство не словом, а ділом. А королівство населяють не тільки люди, а й магічні істоти: мінотаври, дракони, орки. І не всі з них хочуть бути доброзичливими. Коли з'являється небезпека, принцеса-лицар одягає обладунки, сідлає свого скакуна-єдинорога і вирушає в дорогу. Втім, з вірними помічниками і відкритою душею Нелла знайде вихід з будь-якої ситуації!




Тривалість: 1 серія: 22:01 (цілком серій: 12 з 37)
Якість: 720p

Відео: кодек: розмір кадру: 1280 х 720 бітрейт: 2000 кб/с
Аудіо # 1: мова: українська переклад: професійний дубльований кодек: 2.0 бітрейт: 192 кб/с
Джерело озвучення:
Аудіо # 2: мова: англійська переклад: оригінал кодек: 5.1 бітрейт: 384 кб/с
Субтитри: мова: англійська тип: програмні (м'які) формат: *.srt
Перелік серій

01.На добраніч, драконе / Схованки в замку
02.Сер Клод / Ніхто не спить
03.Оркестр принцеси Нелли / Гра Блейна
04.Новенька в Королівстві / Великий сюрприз
05.Для цього і потрібні друзі / Кавунова халепа
06.Драконяча дружба / Смачнолівська сливка
07.Помилка Флеттера / Сюрприз у боулінгу
08.Поєдинок на Блиск фесті / День блискучих бризок
09.Лицарська картка сера Тренера / Вигадка лицаря
10.Третій зайвий / Поглянь на все по іншому
11.Без сукні і корони не можна / Клод Моне

13.Ярмарок-обмін / Талановиті копита
Про файл:
General
Unique ID : 8985425949448359326048770297521550983 (0x6C287B3F8F2906C26EDDB162714B687)
Complete name : E:\MULTFILMS\Nella the Princess Knight S01 720p \S01E01.Knighty Knight Dragons-Inside and Seek.720p..
Format :
Format version : Version 4 / Version 2
File size : 401 MiB
Duration : 22 min 32 s
Overall bit rate : 2 489 kb/s
Movie name : Nella the Princess Knight S01 720p by sergiyko
Encoded date : UTC 2018-08-13 20:25:39
Writing application : v24.0.0 ('Beyond The Pale') 64-bit
Writing library : libebml v1.3.6 + v1.4.9

Video
ID : 1
Format : AVC
Format/Info : Advanced Video Codec
Format profile : [email protected]
Format settings : CABAC / 9 Ref Frames
Format settings, CABAC : Yes
Format settings, ReFrames : 9 frames
Codec ID : V_MPEG4/ISO/AVC
Duration : 22 min 32 s
Bit rate : 1 911 kb/s
Width : 1 280 pixels
Height : 720 pixels
Display aspect ratio : 16:9
Frame rate mode : Constant
Frame rate : 23.976 (24000/1001) FPS
Color space : YUV
Chroma subsampling : 4:2:0
Bit depth : 8 bits
Scan type : Progressive
Bits/(Pixel*Frame) : 0.086
Stream size : 308 MiB (77%)
Title : S01E01.Knighty Knight Dragons-Inside and Seek
Writing library : core 150 r2829 d1fe6fd
Encoding settings : cabac=1 / ref=9 / deblock=1:1:1 / analyse=0x3:0x113 / me=hex / subme=8 / psy=1 / psy_rd=0.40:0.00 / mixed_ref=1 / me_range=16 / chroma_me=1 / trellis=2 / 8x8dct=1 / cqm=0 / deadzone=21,11 / fast_pskip=1 / chroma_qp_offset=-2 / threads=12 / lookahead_threads=2 / sliced_threads=0 / nr=0 / decimate=1 / interlaced=0 / bluray_compat=0 / constrained_intra=0 / bframes=5 / b_pyramid=2 / b_adapt=1 / b_bias=0 / direct=3 / weightb=1 / open_gop=0 / weightp=2 / keyint=250 / keyint_min=23 / scenecut=40 / intra_refresh=0 / rc_lookahead=50 / rc=crf / mbtree=1 / crf=18.0 / qcomp=0.60 / qpmin=0 / qpmax=69 / qpstep=4 / ip_ratio=1.40 / aq=1:0.60
Language : English
Default : Yes
Forced : No

Audio #1
ID : 2
Format : AC-3
Format/Info : Audio Coding 3
Codec ID : A_AC3
Duration : 22 min 32 s
Bit rate mode : Constant
Bit rate : 192 kb/s
Channel(s) : 2 channels
Channel positions : Front: L R
Sampling rate : 48.0 kHz
Frame rate : 31.250 FPS (1536 SPF)
Bit depth : 16 bits
Compression mode : Lossy
Stream size : 31.0 MiB (8%)
Title : DUB | ПлюсПлюс
Language : Ukrainian
Service kind : Complete Main
Default : Yes
Forced : Yes

Audio #2
ID : 3
Format : AC-3
Format/Info : Audio Coding 3
Codec ID : A_AC3
Duration : 22 min 32 s
Bit rate mode : Constant
Bit rate : 384 kb/s
Channel(s) : 2 channels
Channel positions : Front: L R
Sampling rate : 48.0 kHz
Frame rate : 31.250 FPS (1536 SPF)
Bit depth : 16 bits
Compression mode : Lossy
Stream size : 61.9 MiB (15%)
Title : Original
Language : English
Service kind : Complete Main
Default : No
Forced : No

Text
ID : 4
Format : UTF-8
Codec ID : S_TEXT/UTF8
Codec ID/Info : UTF-8 Plain Text
Duration : 21 min 56 s
Bit rate : 279 b/s
Count of elements : 568
Stream size : 44.8 KiB (0%)
Language : English
Default : No
Forced : No
Скріншоти:


Запис/зведення: sergiyko


Бронзовий реліз (на рейтинг впливає 75% завантаженого)
 Трекер:    Зареєстрований   

Завантажити / скачати мультфільм українською



відео для новачків



 Зареєстрований:   2018-08-13 23:41
 Розмір:   4.57 GB 
 Оцінка мультсеріалу:   10/10 (Голосів: 5)
   
Dark Invader 
Модератор відео


З нами з: 06.01.11
Востаннє: 17.04.21
Повідомлень: 3176

2018-08-15 21:02  
sergiyko.5 написано:
Аудіо # 2: мова: англійська переклад: оригінал кодек: 5.1 бітрейт: 384 кб/с


sergiyko.5 написано:

Audio #2
ID : 3
Format : AC-3
Format/Info : Audio Coding 3
Codec ID : A_AC3
Duration : 22 min 32 s
Bit rate mode : Constant
Bit rate : 384 kb/s
Channel(s) : 2 channels

Виправте.

denixx 
Відео Гуртом - підтримка та поширення
Відео Гуртом - підтримка та поширення


З нами з: 04.01.17
Востаннє: 16.04.21
Повідомлень: 235

2020-06-01 15:19  
sergiyko.5
Думаю, завантажу 1080p, та залишусь там на роздачі, а з цього знімусь.
Може є сенс цю роздачу у архів?

Ваш часовий пояс: GMT + 2 Години

Нова тема   Відповісти