Гангстер / Hoodlum (1997) 1080p Ukr/Eng | Sub Eng

Нові коментарі

Нова тема   Відповісти
Останній раз роздавалося drop_plz (2020-09-30)
Автор Повідомлення
Anonymous 







2018-08-13 13:31  
Гангстер / Hoodlum (1997) 1080p Ukr/Eng | Sub Eng

Гангстер / Hoodlum (1997) 1080p Ukr/Eng | Sub Eng


Жанр: драма, кримінальний
Країна: США



Кінокомпанія: United Artists / MGM
Режисер: Білл Дюк
Актори: Лоуренс Фішберн, Тім Рот, Ванесса Л. Уільямс, Енді Гарсіа, Сісілі Тайсон, Чі МакБрайд, Річард Бредфорд, Уільям Етертон, Лоретта Дівайн, Куін Латіфа, Майк Старр, Бо Старр, Пол Бенджамін, Джо Гузалдо, Ед О'Росс, Кларенс Уільямс-третій

Сюжет:
30-і роки. Тіньова злочинність вихлюпується на вулиці Нью-Йорка, і смертельна ворожнеча стравлює гангстера з гангстером. Бампі Джонсон, голова гарлемських рекетирів, сповнений гордості і почуття власної переваги. Коли дикий, неприборканий Голландець Шульц здійснює серію зухвалих нальотів на його територію, Бампі розуміє, що для перемоги над Голландцем необхідно прийняти його правила гри. У міру того, як люта, непримиренна війна набирає обертів, все, включаючи особисте життя Бампі, виходить з-під контролю. Допомогти може лише крайній засіб - залучення на свій бік самого страшного й могутнього гангстера в історії мафії - Лакі Лючано.


Тривалість: 02:10:22
Якість: 1080p
Відео:
кодек:
розмір кадру: 1920х1042
бітрейт: 11.2 Мб/с

Аудіо # 1:
мова: українська
переклад: двоголосий закадровий
кодек: 2.0
бітрейт: 192 кб/с

Аудіо # 2:
мова: англійська
переклад: оригінал
кодек: 5.1
бітрейт: 448 кб/с

Субтитри:
мова: англійська (Full, SDH)
тип: програмні (м'які)
формат: *.srt
Info
General
Unique ID : 226366053808744899545849101788995733625 (0xAA4C8421E6E93AB7B8EAF8AB9F014879)
Format :
Format version : Version 4 / Version 2
File size : 10.8 GiB
Duration : 2 h 10 min
Overall bit rate : 11.8 Mb/s
Encoded date : UTC 2018-08-13 10:22:19
Writing application : v6.1.0 ('Old Devil') built on Mar 4 2013 09:10:42
Writing library : libebml v1.3.0 + v1.4.0

Video
ID : 1
Format : AVC
Format/Info : Advanced Video Codec
Format profile : [email protected]
Format settings : CABAC / 4 Ref Frames
Format settings, CABAC : Yes
Format settings, ReFrames : 4 frames
Codec ID : V_MPEG4/ISO/AVC
Duration : 2 h 10 min
Bit rate : 11.2 Mb/s
Width : 1 920 pixels
Height : 1 042 pixels
Display aspect ratio : 1.85:1
Frame rate mode : Constant
Frame rate : 23.976 (24000/1001) FPS
Color space : YUV
Chroma subsampling : 4:2:0
Bit depth : 8 bits
Scan type : Progressive
Bits/(Pixel*Frame) : 0.233
Stream size : 9.97 GiB (93%)
Title : ~V~
Writing library : core 148 r2705 3f5ed56
Encoding settings : cabac=1 / ref=4 / deblock=1:-3:-3 / analyse=0x3:0x133 / me=umh / subme=11 / psy=1 / psy_rd=1.00:0.00 / mixed_ref=1 / me_range=32 / chroma_me=1 / trellis=2 / 8x8dct=1 / cqm=0 / deadzone=21,11 / fast_pskip=0 / chroma_qp_offset=-2 / threads=12 / lookahead_threads=1 / sliced_threads=0 / nr=0 / decimate=0 / interlaced=0 / bluray_compat=0 / constrained_intra=0 / bframes=10 / b_pyramid=2 / b_adapt=2 / b_bias=0 / direct=3 / weightb=1 / open_gop=0 / weightp=2 / keyint=240 / keyint_min=23 / scenecut=40 / intra_refresh=0 / rc=2pass / mbtree=0 / bitrate=11183 / ratetol=1.0 / qcomp=0.60 / qpmin=0 / qpmax=69 / qpstep=4 / cplxblur=20.0 / qblur=0.5 / ip_ratio=1.40 / pb_ratio=1.30 / aq=3:1.00
Language : English
Default : Yes
Forced : No

Audio #1
ID : 2
Format : AC-3
Format/Info : Audio Coding 3
Codec ID : A_AC3
Duration : 2 h 10 min
Bit rate mode : Constant
Bit rate : 192 kb/s
Channel(s) : 2 channels
Channel positions : Front: L R
Sampling rate : 48.0 kHz
Frame rate : 31.250 FPS (1536 SPF)
Bit depth : 16 bits
Compression mode : Lossy
Stream size : 179 MiB (2%)
Title : UKR (K1)
Language : Ukrainian
Service kind : Complete Main
Default : Yes
Forced : Yes

Audio #2
ID : 3
Format : AC-3
Format/Info : Audio Coding 3
Codec ID : A_AC3
Duration : 2 h 10 min
Bit rate mode : Constant
Bit rate : 448 kb/s
Channel(s) : 6 channels
Channel positions : Front: L C R, Side: L R, LFE
Sampling rate : 48.0 kHz
Frame rate : 31.250 FPS (1536 SPF)
Bit depth : 16 bits
Compression mode : Lossy
Stream size : 418 MiB (4%)
Language : English
Service kind : Complete Main
Default : No
Forced : No

Text #1
ID : 4
Format : UTF-8
Codec ID : S_TEXT/UTF8
Codec ID/Info : UTF-8 Plain Text
Title : Full
Language : English
Default : No
Forced : No

Text #2
ID : 5
Format : UTF-8
Codec ID : S_TEXT/UTF8
Codec ID/Info : UTF-8 Plain Text
Title : SDH
Language : English
Default : No
Forced : No

Menu
00:00:00.000 : :001
00:00:10.927 : :002
00:12:57.693 : :003
00:29:07.871 : :004
00:45:13.460 : :005
01:02:22.655 : :006
01:17:52.793 : :007
01:34:38.005 : :008
01:51:58.253 : :009
02:04:14.275 : :010
Скріншоти









За українську доріжку дякую п. dvorsky, drakon87, Neo777
Особиста подяка пану denixx за надану матеріальну допомогу на підтримку цього і майбутніх релізів.
Джерело:


Срібний реліз (на рейтинг впливає 50% завантаженого)
 Трекер:    Зареєстрований   

Завантажити / скачати фільм українською



відео для новачків



 Зареєстрований:   2018-08-13 13:31
 Розмір:   10.77 GB 
 Оцінка фільму:   9/10 (Голосів: 4)
   
Інші релізи
   Гангстер / Hoodlum (1997) Ukr/Eng Arsenfpu  1 / 0   2.19 GB   2016-09-04 12:14 
Ваш часовий пояс: GMT + 2 Години

Нова тема   Відповісти