Горець / Highlander (1986) 1080p 2xUkr/Eng | Sub Eng

Нові коментарі

Нова тема   Відповісти
Автор Повідомлення
Anonymous 







2018-08-13 09:05  
Горець / Highlander (1986) 1080p 2xUkr/Eng | Sub Eng

Горець / Highlander (1986) 1080p 2xUkr/Eng | Sub Eng


Жанр: фентезі, бойовик
Країна: США, Велика Британія



Кінокомпанія: EMI Films, StudioCanal
Режисер: Рассел Малкехі
Актори: Крістофер Ламберт, Роксенн Харт, Кленсі Браун, Шон Коннері, Беті Едні, Алан Норт

Сюжет:
Коннор Маклауд — шотландець, який в 1536 році був вбитий в битві, але містичним чином воскрес, і рідний клан вигнав його. Вчителем Маклауда став іспанський дворянин, який пояснив, що він належить до безсмертної раси воїнів, яких можна вбити, лише відрубавши мечем голову… Сутичка між Маклаудом і його вічним ворогом Курганом, що почалася в Шотландії XVI століття, продовжується в сучасному Манхеттені. Від результату цієї битви залежить доля всіх смертних. Це частина дуелі, що тягнеться віками.


Тривалість: 01:56:38
Якість: 1080p
Відео:
кодек:
розмір кадру: 1920х1040
бітрейт: 8 243 кб/с

Аудіо # 1:
мова: українська
переклад: багатоголосий закадровий ,
кодек: 2.0
бітрейт: 192 кб/с

Аудіо # 2:
мова: українська
переклад: багатоголосий закадровий ,
кодек: 2.0
бітрейт: 192 кб/с

Аудіо # 3:
мова: англійська
переклад: оригінал
кодек: 5.1
бітрейт: 1 509 кб/с

Субтитри:
мова: англійська
тип: програмні (м'які)
формат: *.srt
Info
General
Unique ID : 233578974827149875347888109783708315726 (0xAFB9AC985D2610C18F6FDA6C11E7B04E)
Format :
Format version : Version 4 / Version 2
File size : 8.26 GiB
Duration : 1 h 56 min
Overall bit rate : 10.1 Mb/s
Movie name : Helen.of.Troy.2003.1080p.BluRay.ZGV
Encoded date : UTC 2018-08-13 05:57:44
Writing application : v6.1.0 ('Old Devil') built on Mar 4 2013 09:10:42
Writing library : libebml v1.3.0 + v1.4.0

Video
ID : 1
Format : AVC
Format/Info : Advanced Video Codec
Format profile : [email protected]
Format settings : CABAC / 4 Ref Frames
Format settings, CABAC : Yes
Format settings, ReFrames : 4 frames
Codec ID : V_MPEG4/ISO/AVC
Duration : 1 h 56 min
Bit rate : 8 243 kb/s
Width : 1 920 pixels
Height : 1 040 pixels
Display aspect ratio : 1.85:1
Frame rate mode : Constant
Frame rate : 24.000 FPS
Color space : YUV
Chroma subsampling : 4:2:0
Bit depth : 8 bits
Scan type : Progressive
Bits/(Pixel*Frame) : 0.172
Stream size : 6.55 GiB (79%)
Writing library : core 67 r1165M 6841c5e
Encoding settings : cabac=1 / ref=4 / deblock=1:0:0 / analyse=0x3:0x2 / me=umh / subme=7 / psy_rd=1.0:0.0 / mixed_ref=1 / me_range=16 / chroma_me=1 / trellis=1 / 8x8dct=1 / cqm=0 / deadzone=21,11 / chroma_qp_offset=-2 / threads=6 / nr=0 / decimate=1 / mbaff=0 / bframes=3 / b_pyramid=1 / b_adapt=1 / b_bias=0 / direct=1 / wpredb=1 / keyint=250 / keyint_min=25 / scenecut=40 / rc=2pass / bitrate=8243 / ratetol=1.0 / qcomp=0.60 / qpmin=10 / qpmax=51 / qpstep=4 / cplxblur=20.0 / qblur=0.5 / ip_ratio=1.40 / pb_ratio=1.30 / aq=1:1.00
Language : English
Default : Yes
Forced : No

Audio #1
ID : 2
Format : AC-3
Format/Info : Audio Coding 3
Codec ID : A_AC3
Duration : 1 h 56 min
Bit rate mode : Constant
Bit rate : 192 kb/s
Channel(s) : 2 channels
Channel positions : Front: L R
Sampling rate : 48.0 kHz
Frame rate : 31.250 FPS (1536 SPF)
Bit depth : 16 bits
Compression mode : Lossy
Stream size : 160 MiB (2%)
Title : UKR (ТРК "Україна, НЛО-TV")
Language : Ukrainian
Service kind : Complete Main
Default : Yes
Forced : Yes

Audio #2
ID : 3
Format : AC-3
Format/Info : Audio Coding 3
Codec ID : A_AC3
Duration : 1 h 56 min
Bit rate mode : Constant
Bit rate : 192 kb/s
Channel(s) : 2 channels
Channel positions : Front: L R
Sampling rate : 48.0 kHz
Frame rate : 31.250 FPS (1536 SPF)
Bit depth : 16 bits
Compression mode : Lossy
Stream size : 160 MiB (2%)
Title : UKR (1+1, ICTV)
Language : Ukrainian
Service kind : Complete Main
Default : No
Forced : No

Audio #3
ID : 4
Format :
Format/Info : Digital Theater Systems
Codec ID : A_DTS
Duration : 1 h 56 min
Bit rate mode : Constant
Bit rate : 1 509 kb/s
Channel(s) : 6 channels
Channel positions : Front: L C R, Side: L R, LFE
Sampling rate : 48.0 kHz
Frame rate : 93.750 FPS (512 SPF)
Bit depth : 24 bits
Compression mode : Lossy
Stream size : 1.23 GiB (15%)
Language : English
Default : No
Forced : No

Text
ID : 5
Format : UTF-8
Codec ID : S_TEXT/UTF8
Codec ID/Info : UTF-8 Plain Text
Language : English
Default : No
Forced : No
Скріншоти








За українські доріжки дякую п.: slavik_v_z, Bohdan237, Arsenfpu
Особиста подяка пану denixx за надану матеріальну допомогу на підтримку цього і майбутніх релізів.
Джерело:


Срібний реліз (на рейтинг впливає 50% завантаженого)
 Трекер:    Зареєстрований   

Завантажити / скачати фільм українською



відео для новачків



 Зареєстрований:   2018-08-13 09:05
 Розмір:   8.26 GB 
 Оцінка фільму:   9.8/10 (Голосів: 10)
   
Інші релізи
   Горець / Highlander (1986) AVC 2xUkr/Eng Arsenfpu  6 / 0   2.56 GB   2017-10-09 00:06 
rudder1992 
Свій


З нами з: 26.02.17
Востаннє: 26.04.19
Повідомлень: 89

2019-02-08 00:36  
Завжди чув про цей фільм... і тільки в 2019 вирішив переглянути.... мені 26...
А фільм бомбезний! Особливо вразила чудова гра Ламберта. Також на високому рівні режисура та цікава атмосфера і сам сюжет.
Із задоволенням ще раз перегляну! До речі... ледь не забув! Класна музика гурту Квін і композитора Майкла Кемена.
10 із 10... і як таке кіно пройшло мимо мене?..

Dr.S 
Свій


З нами з: 30.05.17
Востаннє: 26.04.19
Повідомлень: 89

2019-02-08 11:49  
зроблю ремукс
можете викласти доріжки окремо?

Ваш часовий пояс: GMT + 2 Години

Нова тема   Відповісти