[Збір коштів] Надприродне (Сезон 14, Серії 1-2) / Supernatural (Season 14, Episodes 1-2) (2018-2019) 720p

Нові коментарі

Нова тема   Відповісти
Автор Повідомлення
Arch Enemy 
Відео Гуртом - озвучення
Відео Гуртом - озвучення


З нами з: 30.08.12
Востаннє: 09.12.18
Повідомлень: 1585

2018-08-12 22:40  
Надприродне (Сезон 14, Серії 1-2) / Supernatural (Season 14, Episodes 1-2) (2018-2019) 720p


На цей серіал проводиться збір коштів



Жанр: жахи, трилер, пригодницький
Країна: США



Кінокомпанія: Kripke Enterprises, Supernatural Films, Warner Bros. Television
Режисер: Ерік Кріпке
Актори: Джаред Падалецкі, Дженсен Еклз, Джим Бівер, Міша Колінс, Марк Шепард та інші.

Сюжет:
Колись в місті Лоуренс, штат Канзас, разом зі своїми малолітніми синами, мирно жила сім'я Вінчестерів. Але буквально за один день життя цих людей змінилося назавжди, будинок згорів, у вогні пожежі загинула Мері Вінчестер - любляча мати і добра дружина. Чотирилітній Дін Вінчестер виніс з вогню свого шестимісячного братика і з тих пір став для нього ангелом охоронцем, готовим на все ради безпеки молодшого брата. А Джон Вінчестер з простого робочого гаража, перетворився на сміливого мисливця за нечистю, одержимого ідеєю помститися за смерть дружини. З цією думкою він виховував своїх синів, що стали майстерними бійцями, що б'ються пліч-о-пліч з батьком.
І саме з Лоуренса почалася безкінечна подорож сім'ї Вінчестерів по безкрайніх просторах Америки у пошуках людей, яким необхідна допомога, кому немає звідки чекати підмоги і немає на кого розраховувати, коли в їхнє життя залізною ходою увірвалося надприродне.

Тривалість: 1 серія/~45 хв., всього серій: ~невідомо
Перелік Серій
01. Stranger in a Strange Land
02. Gods and Monsters
03. The Scar
04. Mint Condition
05. ...
Відео:
якість:
кодек:
розмір кадру: 1280х720 пікс.
бітрейт: ~2400 кбіт/сек.
контейнер:

Аудіо:
мова: українська
озвучення: багатоголосе закадрове
кодек: 2.0
бітрейт: ~256 кбіт/сек.

Джерело озвучення та релізу: AniUA
Скріншоти

Info
General
Unique ID : 10113344332396031513007060211586626005 (0x79BC25F70170A42548BA593EC6CF1D5)
Complete name : E:\Films\Supernatural (Season 14)\supernatural.s14e01.internal.720p.
Format :
Format version : Version 4 / Version 2
File size : 799 MiB
Duration : 42 min 1 s
Overall bit rate : 2 657 kb/s
Encoded date : UTC 2018-10-13 20:40:52
Writing application : v26.0.0 ('In The Game') 64-bit
Writing library : libebml v1.3.6 + v1.4.9

Video
ID : 1
Format : AVC
Format/Info : Advanced Video Codec
Format profile : [email protected]
Format settings : CABAC / 3 Ref Frames
Format settings, CABAC : Yes
Format settings, ReFrames : 3 frames
Codec ID : V_MPEG4/ISO/AVC
Duration : 42 min 0 s
Bit rate mode : Constant
Bit rate : 2 432 kb/s
Width : 1 280 pixels
Height : 720 pixels
Display aspect ratio : 16:9
Frame rate mode : Constant
Frame rate : 23.976 (24000/1001) FPS
Color space : YUV
Chroma subsampling : 4:2:0
Bit depth : 8 bits
Scan type : Progressive
Bits/(Pixel*Frame) : 0.110
Stream size : 721 MiB (90%)
Title : 01. Internal
Language : English
Default : Yes
Forced : Yes

Audio
ID : 2
Format : LC
Format/Info : Advanced Audio Codec Low Complexity
Codec ID : A_AAC-2
Duration : 42 min 1 s
Bit rate : 256 kb/s
Channel(s) : 2 channels
Channel layout : L R
Sampling rate : 48.0 kHz
Frame rate : 46.875 FPS (1024 SPF)
Compression mode : Lossy
Delay relative to video : -27 ms
Stream size : 76.8 MiB (10%)
Title : AniUA MVO
Language : Ukrainian
Default : Yes
Forced : Yes


На цей серіал проводиться збір коштів

Загалом на озвучення всього серіалу потрібно ~29 000 грн. (1 серія/1450 грн. )
Станом на 13.11.2018 зібрано: 3000 грн.
На 3 серію зібрано 100 грн. з потрібних 1450 грн.


!!! Увага !!!
Для тих, хто забуває або з якихось причин не може вказати на що мають піти перераховані кошти - відписуйте мені в приватне повідомлення на що, від кого, скільки і з якого рахунку (кілька останніх цифр достатньо).


Авторський реліз (завантажувати можна без реєстрації)
 Трекер:    Зареєстрований   

Завантажити / скачати серіал українською



відео для новачків



 Зареєстрований:   2018-10-21 17:35
 Розмір:   1.55 GB 
 Оцінка серіалу:   9.8/10 (Голосів: 6)
   
teelmaster1 
Поважний учасник


З нами з: 27.12.16
Востаннє: 09.12.18
Повідомлень: 222

2018-08-13 19:03  
Вам часом непотрібна допомого в озвучуванні
Arch Enemy 
Відео Гуртом - озвучення
Відео Гуртом - озвучення


З нами з: 30.08.12
Востаннє: 09.12.18
Повідомлень: 1585

2018-08-13 22:06  
teelmaster1 написано:
Вам часом непотрібна допомого в озвучуванні

Пишіть вашу пропозицію в ПП: https://toloka.to/u154122

Loyso 
Новенький


З нами з: 27.08.12
Востаннє: 07.12.18
Повідомлень: 7

2018-08-14 11:37  
От дивлюся - 13-й, 14й сезони є чи буде українська озвучка. А з 9-го по 12-й яка ситуація?
Coлoмoн Кeйн 
Забанено
Забанено


З нами з: 09.08.18
Востаннє: 27.08.18
Повідомлень: 53

2018-08-14 11:45  
Loyso написано:
А з 9-го по 12-й яка ситуація?

У перспективі на майбутнє. Це не залежить безпосередньо від AniUA, однак залежить напряму від нашого фінансування. Від себе хочу побажати команді AniUA не затягувати з виходом нових серій, щоб у всіх нас було вдосталь часу на озвучення 9-12 сезонів.

Coлoмон Keйн 
Забанено
Забанено


З нами з: 21.09.18
Востаннє: 23.10.18
Повідомлень: 35

2018-09-21 19:18  
Трейлер 14-го сезону

Arch Enemy 
Відео Гуртом - озвучення
Відео Гуртом - озвучення


З нами з: 30.08.12
Востаннє: 09.12.18
Повідомлень: 1585

2018-09-22 00:27  
Coлoмон Keйн написано:
Трейлер 14-го сезону

Вже в процесі, скоро і його озвучимо)))

Arch Enemy 
Відео Гуртом - озвучення
Відео Гуртом - озвучення


З нами з: 30.08.12
Востаннє: 09.12.18
Повідомлень: 1585

2018-09-24 20:11  
Додав в опис озвучений трейлер.
Arch Enemy 
Відео Гуртом - озвучення
Відео Гуртом - озвучення


З нами з: 30.08.12
Востаннє: 09.12.18
Повідомлень: 1585

2018-10-13 23:13  
Додано першу серію.

Plant2 
Частий відвідувач


З нами з: 29.05.12
Востаннє: 09.12.18
Повідомлень: 26

2018-10-14 21:06  
Arch Enemy

Я Вам писав особисті повідомлення, можете поглянути?

Coлoмон Keйн 
Забанено
Забанено


З нами з: 21.09.18
Востаннє: 23.10.18
Повідомлень: 35

2018-10-15 18:27  
+270 грн. для другої серії.
Arch Enemy 
Відео Гуртом - озвучення
Відео Гуртом - озвучення


З нами з: 30.08.12
Востаннє: 09.12.18
Повідомлень: 1585

2018-10-15 19:58  
Coлoмон Keйн написано:
+270 грн. для другої серії.

є, чекаємо на серію.

Arch Enemy 
Відео Гуртом - озвучення
Відео Гуртом - озвучення


З нами з: 30.08.12
Востаннє: 09.12.18
Повідомлень: 1585

2018-10-21 17:36  
Додано другу серію.

bstefanyshyn 
Новенький


З нами з: 02.02.12
Востаннє: 07.12.18
Повідомлень: 22

2018-10-21 19:48  
Його ще знімають??? 😦 Закінчив дивитись на третьому чи четвертому сезоні. Навіть припустити не можу, що там зараз може відбуватись. Є ще хтось хто досі дивиться? Серіал реабілітували?
Coлoмон Keйн 
Забанено
Забанено


З нами з: 21.09.18
Востаннє: 23.10.18
Повідомлень: 35

2018-10-21 20:48  
bstefanyshyn написано:
Серіал реабілітували?

Серіал невпинно триває вже 14 років. Ніхто паузи не робив)

Arch Enemy 
Відео Гуртом - озвучення
Відео Гуртом - озвучення


З нами з: 30.08.12
Востаннє: 09.12.18
Повідомлень: 1585

2018-10-22 22:49  
P.S.: Прийшов не підписаний платіж на 198 (200?) грн., якщо хтось присилав на цей реліз - відпишіть мені в пм (на що, від кого і з якого рахунку (кілька останніх цифр достатньо).

Ваш часовий пояс: GMT + 2 Години

Нова тема   Відповісти