Відчайдушні напарники / Skiptrace / Jue di tao wang (2016) Remux 1080p Ukr/Eng | Sub Eng — HD українською

Відчайдушні напарники / Skiptrace / Jue di tao wang (2016) Remux 1080p Ukr/Eng | Sub Eng

Нові коментарі

Нова тема   Відповісти
Автор Повідомлення
staf777 
Попереджень: 1
Попереджень: 1 


З нами з: 16.11.16
Востаннє: 20.08.18
Повідомлень: 1399

2018-08-12 18:14  
Відчайдушні напарники / Skiptrace / Jue di tao wang (2016) Remux 1080p Ukr/Eng | Sub Eng

Відчайдушні напарники / Skiptrace / Jue di tao wang (2016) Remux 1080p Ukr/Eng | Sub Eng


Жанр: бойовик, трилер, комедія, кримінальний, пригодницький
Країна: США, Китай, Гонконг



Кінокомпанія: Cider Mill Pictures, Dasym Enetertainment, InterTitle Films, JC Group International, Talent International Film Cultural Company, Talent International Media
Режисер: Ренні Гарлін
Актори: Джекі Чан, Джонні Ноксвіл, Бінбін Фань, Ерік Цан, Ів Торрес, Уїнстон Чао, Ен Джон-хун, Ши Ши, Майкл Вон, Ділан Ко

Сюжет:
Щоб знешкодити злочинний синдикат і врятувати свою племінницю, найчесніший коп повинен взяти в напарники красунчика-афериста. Вони повні протилежності, але у них одна небезпечна місія. Вони в бігах, але їм не уникнути один одного.


Тривалість: 01:47:41
Якість: Remux 1080p
Відео:
кодек:
розмір кадру: 1920x1080
бітрейт: 17.9 Mб/с

Аудіо # 1:
мова: українська
переклад: багатоголосий закадровий
кодек: -HD MA 5.1
бітрейт: 4147 кб/с

Аудіо # 2:
мова: українська
переклад: багатоголосий закадровий
кодек: 5.1
бітрейт: 640 кб/с

Аудіо # 3:
мова: англійська
переклад: оригінал
кодек: -HD MA 5.1
бітрейт: 4188 кб/с

Субтитри # 1-2:
мова: англійська
тип: пререндерні
формат: *.pgs
Info
General
Unique ID : 335962616063796610483533229872537783745 (0xFCC00BD6DB28EF8A9C2DAF3B6F29CDC1)
Complete name : G:\Майбутні релізи\Skiptrace (2016) Remux 1080p [Ukr,Eng sub.Eng] [Hurtom].
Format :
Format version : Version 4 / Version 2
File size : 20.2 GiB
Duration : 1 h 47 min
Overall bit rate mode : Variable
Overall bit rate : 26.9 Mb/s
Movie name : Skiptrace (2016) Remux 1080p [Ukr,Eng sub.Eng] [Hurtom]
Encoded date : UTC 2018-08-12 15:19:08
Writing application : v24.0.0 ('Beyond The Pale') 64-bit
Writing library : libebml v1.3.6 + v1.4.9
Cover : Yes
Attachments : cover.jpg

Video
ID : 1
Format : AVC
Format/Info : Advanced Video Codec
Format profile : [email protected]
Format settings : CABAC / 4 Ref Frames
Format settings, CABAC : Yes
Format settings, ReFrames : 4 frames
Codec ID : V_MPEG4/ISO/AVC
Duration : 1 h 47 min
Bit rate mode : Variable
Bit rate : 17.9 Mb/s
Maximum bit rate : 35.0 Mb/s
Width : 1 920 pixels
Height : 1 080 pixels
Display aspect ratio : 16:9
Frame rate mode : Constant
Frame rate : 23.976 (24000/1001) FPS
Color space : YUV
Chroma subsampling : 4:2:0
Bit depth : 8 bits
Scan type : Progressive
Bits/(Pixel*Frame) : 0.359
Stream size : 13.4 GiB (67%)
Default : Yes
Forced : No

Audio #1
ID : 2
Format :
Format/Info : Digital Theater Systems
Format profile : MA / Core
Codec ID : A_DTS
Duration : 1 h 47 min
Bit rate mode : Variable / Constant
Bit rate : 4 147 kb/s / 1 509 kb/s
Channel(s) : 6 channels
Channel positions : Front: L C R, Side: L R, LFE
Sampling rate : 48.0 kHz
Frame rate : 93.750 FPS (512 SPF)
Bit depth : 24 bits
Compression mode : Lossless / Lossy
Stream size : 3.12 GiB (15%)
Title : [UA- HD MA]
Language : Ukrainian
Default : Yes
Forced : Yes

Audio #2
ID : 3
Format : AC-3
Format/Info : Audio Coding 3
Codec ID : A_AC3
Duration : 1 h 47 min
Bit rate mode : Constant
Bit rate : 640 kb/s
Channel(s) : 6 channels
Channel positions : Front: L C R, Side: L R, LFE
Sampling rate : 48.0 kHz
Frame rate : 31.250 FPS (1536 SPF)
Bit depth : 16 bits
Compression mode : Lossy
Stream size : 493 MiB (2%)
Title : [UA-]
Language : Ukrainian
Service kind : Complete Main
Default : No
Forced : No

Audio #3
ID : 4
Format :
Format/Info : Digital Theater Systems
Format profile : MA / Core
Codec ID : A_DTS
Duration : 1 h 47 min
Bit rate mode : Variable / Constant
Bit rate : 4 188 kb/s / 1 509 kb/s
Channel(s) : 6 channels
Channel positions : Front: L C R, Side: L R, LFE
Sampling rate : 48.0 kHz
Frame rate : 93.750 FPS (512 SPF)
Bit depth : 24 bits
Compression mode : Lossless / Lossy
Stream size : 3.15 GiB (16%)
Language : English
Default : No
Forced : No

Text #1
ID : 5
Format : PGS
Muxing mode : zlib
Codec ID : S_HDMV/PGS
Codec ID/Info : Picture based subtitle format used on BDs/HD-DVDs
Duration : 1 h 42 min
Bit rate : 20.0 kb/s
Count of elements : 2224
Stream size : 14.6 MiB (0%)
Language : English
Default : No
Forced : No

Text #2
ID : 6
Format : PGS
Muxing mode : zlib
Codec ID : S_HDMV/PGS
Codec ID/Info : Picture based subtitle format used on BDs/HD-DVDs
Duration : 1 h 46 min
Bit rate : 24.7 kb/s
Count of elements : 2874
Stream size : 18.8 MiB (0%)
Language : English
Default : No
Forced : No
Скріншоти




Подяка пану AngryBirdsUA за доріжку та пану Hanway за синхронізацію.

За допомогу в створені реліза дякую пану 11FrYkT
Джерело: &
Особиста оцінка: 0 - не дивився


Золотий реліз (завантажене не впливає на рейтинг)
 Трекер:    Зареєстрований   

Завантажити / скачати фільм українською



відео для новачків



 Зареєстрований:   2018-08-12 20:35
 Розмір:   20.21 GB 
 Оцінка фільму:   7.9/10 (Голосів: 7)
   
bot 
робот


З нами з: 30.09.07
Востаннє: 26.05.05
Повідомлень: 19620

2018-08-12 18:14  
Тему перенесено з Фільми в HD до форуму Анонси релізів


staf777

bot 
робот


З нами з: 30.09.07
Востаннє: 26.05.05
Повідомлень: 19620

2018-08-12 20:35  
Тему перенесено з Анонси релізів до форуму Фільми в HD


staf777

Electroz 
Відео Гуртом - підтримка та поширення
Відео Гуртом - підтримка та поширення


З нами з: 18.09.14
Востаннє: 21.08.18
Повідомлень: 2920

2018-08-12 20:36  
Прибери логотип.
staf777 
Попереджень: 1
Попереджень: 1 


З нами з: 16.11.16
Востаннє: 20.08.18
Повідомлень: 1399

2018-08-12 20:44  
Electroz
Прибрав

-_-В_E_N_D_Е_R-_- 
VIP


З нами з: 11.07.18
Востаннє: 21.08.18
Повідомлень: 528

2018-08-12 20:47  
staf777 написано:

Аудіо # 1:
мова: українська
переклад: багатоголосий закадровий
кодек: -HD MA 5.1
бітрейт: кб/с

Який він там?

Ваш часовий пояс: GMT + 2 Години

Нова тема   Відповісти