Добраніч, і нехай щастить. / Good Night, and Good Luck. (2005) 1080p 2xUkr/Eng | Sub Eng

Нові коментарі

Нова тема   Відповісти
Автор Повідомлення
Anonymous 







2018-08-12 17:00  
Добраніч, і нехай щастить. / Good Night, and Good Luck. (2005) 1080p 2xUkr/Eng | Sub Eng

Добраніч, і нехай щастить. / Good Night, and Good Luck. (2005) 1080p 2xUkr/Eng | Sub Eng
Альтернативний постер:



Жанр: драма, історичний
Країна: США, Велика Британія, Франція, Японія



Кінокомпанія: Warner Independent Pictures
Режисер: Джордж Клуні
Актори: Девід Стретейрн, Патрісія Кларксон, Джордж Клуні, Джефф Деніелс, Роберт Дауні-молодший, Френк Ланджелла, Роберт Джон Берк, Алекс Борстайн, Метт Рос, Рей Вайз, Ґрант Геслов

Сюжет:
Історія титанічної медіа-битви 1950-х, що стала однією з найславетніших подій в історії американського телебачення. Відомий журналіст та телеведучий Едвард Р. Марроу оголосив особистий хрестовий похід проти горезвісного сенатора Джозефа Маккарті. У своїх викривальних виступах у програмі See It Now Марроу виступив із нищівною критикою ініційованого Маккарті "полювання на відьом" і привернув увагу американської спільноти до важливості дотримання демократичних принципів керування державою... Чорно-біла суспільно-політична драма Джорджа Клуні стала однією з головних подій незалежного американського кіна останнього часу та отримала низку престижних професійних відзнак, серед яких – шість номінацій на "Оскар" та призи за найкращий сценарій і найкращу головну чоловічу роль на Венеційському кінофестивалі.


Тривалість: 01:32:48
Якість: 1080p
Відео:
кодек:
розмір кадру: 1920х1080
бітрейт: 12 Мб/с

Аудіо # 1:
мова: українська
переклад: багатоголосий закадровий
кодек: 2.0
бітрейт: 192 кб/с

Аудіо # 2:
мова: українська
переклад: багатоголосий закадровий
кодек: 5.1
бітрейт: 384 кб/с

Аудіо # 3:
мова: англійська
переклад: оригінал
кодек: 5.1
бітрейт: 1509 кб/с

Субтитри:
мова: англійська
тип: пререндерні
формат: PGS
Info
General
Unique ID : 216066364175252819292590746734723679958 (0xA28CDE3A18FF2E6AA7BD70ACB75D46D6)
Format :
Format version : Version 4 / Version 2
File size : 9.18 GiB
Duration : 1 h 32 min
Overall bit rate : 14.2 Mb/s
Encoded date : UTC 2018-08-12 14:47:27
Writing application : v6.1.0 ('Old Devil') built on Mar 4 2013 09:10:42
Writing library : libebml v1.3.0 + v1.4.0

Video
ID : 1
Format : AVC
Format/Info : Advanced Video Codec
Format profile : [email protected]
Format settings : CABAC / 4 Ref Frames
Format settings, CABAC : Yes
Format settings, ReFrames : 4 frames
Codec ID : V_MPEG4/ISO/AVC
Duration : 1 h 32 min
Bit rate : 12.0 Mb/s
Width : 1 920 pixels
Height : 1 080 pixels
Display aspect ratio : 16:9
Frame rate mode : Constant
Frame rate : 23.976 (24000/1001) FPS
Color space : YUV
Chroma subsampling : 4:2:0
Bit depth : 8 bits
Scan type : Progressive
Bits/(Pixel*Frame) : 0.241
Stream size : 7.64 GiB (83%)
Title : Rip 1080p from Remux by maks1979
Writing library : core 114 r1924 08d04a4
Encoding settings : cabac=1 / ref=4 / deblock=1:-3:-3 / analyse=0x3:0x113 / me=umh / subme=10 / psy=1 / psy_rd=1.00:0.00 / mixed_ref=1 / me_range=32 / chroma_me=1 / trellis=2 / 8x8dct=1 / cqm=0 / deadzone=21,11 / fast_pskip=0 / chroma_qp_offset=-2 / threads=4 / sliced_threads=0 / nr=0 / decimate=0 / interlaced=0 / constrained_intra=0 / bframes=6 / b_pyramid=2 / b_adapt=2 / b_bias=0 / direct=3 / weightb=1 / open_gop=0 / weightp=2 / keyint=250 / keyint_min=23 / scenecut=40 / intra_refresh=0 / rc_lookahead=60 / rc=2pass / mbtree=1 / bitrate=12000 / ratetol=2.0 / qcomp=0.70 / qpmin=0 / qpmax=69 / qpstep=4 / cplxblur=20.0 / qblur=0.5 / vbv_maxrate=50000 / vbv_bufsize=50000 / nal_hrd=none / ip_ratio=1.40 / aq=1:1.00
Language : English
Default : Yes
Forced : No

Audio #1
ID : 2
Format : AC-3
Format/Info : Audio Coding 3
Codec ID : A_AC3
Duration : 1 h 32 min
Bit rate mode : Constant
Bit rate : 192 kb/s
Channel(s) : 2 channels
Channel positions : Front: L R
Sampling rate : 48.0 kHz
Frame rate : 31.250 FPS (1536 SPF)
Bit depth : 16 bits
Compression mode : Lossy
Stream size : 127 MiB (1%)
Title : UKR (NLO-TV)
Language : Ukrainian
Service kind : Complete Main
Default : Yes
Forced : Yes

Audio #2
ID : 3
Format : AC-3
Format/Info : Audio Coding 3
Codec ID : A_AC3
Duration : 1 h 32 min
Bit rate mode : Constant
Bit rate : 384 kb/s
Channel(s) : 6 channels
Channel positions : Front: L C R, Side: L R, LFE
Sampling rate : 48.0 kHz
Frame rate : 31.250 FPS (1536 SPF)
Bit depth : 16 bits
Compression mode : Lossy
Stream size : 255 MiB (3%)
Title : UKR (СіТі)
Language : Ukrainian
Service kind : Complete Main
Default : No
Forced : No

Audio #3
ID : 4
Format :
Format/Info : Digital Theater Systems
Codec ID : A_DTS
Duration : 1 h 32 min
Bit rate mode : Constant
Bit rate : 1 509 kb/s
Channel(s) : 6 channels
Channel positions : Front: L C R, Side: L R, LFE
Sampling rate : 48.0 kHz
Frame rate : 93.750 FPS (512 SPF)
Bit depth : 24 bits
Compression mode : Lossy
Stream size : 1 002 MiB (11%)
Language : English
Default : No
Forced : No

Text
ID : 5
Format : PGS
Codec ID : S_HDMV/PGS
Codec ID/Info : Picture based subtitle format used on BDs/HD-DVDs
Language : English
Default : No
Forced : No

Menu
00:00:00.000 : :Chapter 01
00:05:23.155 : :Chapter 02
00:12:10.354 : :Chapter 03
00:24:33.721 : :Chapter 04
00:30:58.189 : :Chapter 05
00:37:56.856 : :Chapter 06
00:45:59.840 : :Chapter 07
00:51:58.280 : :Chapter 08
00:58:21.164 : :Chapter 09
01:07:37.135 : :Chapter 10
01:15:58.679 : :Chapter 11
01:24:32.442 : :Chapter 12
Скріншоти






За запис з НЛО дякую пану РОМЕО, синхронізація - Arsenfpu
За доріжку від СіТі дякую пану aalleexx85
За постери дякую пану Ermolenko
Особиста подяка пану denixx за надану матеріальну допомогу на підтримку цього і майбутніх релізів.
Джерело:


 Трекер:    Зареєстрований   

Завантажити / скачати фільм українською



відео для новачків



 Зареєстрований:   2018-08-12 17:00
 Розмір:   9.18 GB 
 Оцінка фільму:   10/10 (Голосів: 4)
   
13Mark 
Поважний учасник


З нами з: 25.04.08
Востаннє: 11.12.18
Повідомлень: 192

2018-08-12 23:40  
Приклад ідеальної телешоу журналістики. Люблю цей фільм.
Ваш часовий пояс: GMT + 2 Години

Нова тема   Відповісти