Око / The Eye (2008) Remux 1080p Ukr/Eng | Sub Eng

Нові коментарі

Нова тема   Відповісти
Автор Повідомлення
staf777 
Попереджень: 1
Попереджень: 1 


З нами з: 16.11.16
Востаннє: 13.12.18
Повідомлень: 1912

2018-08-12 16:25  
Око / The Eye (2008) Remux 1080p Ukr/Eng | Sub Eng

Око / The Eye (2008) Remux 1080p Ukr/Eng | Sub Eng
Оригінальна обкладинка

Око / The Eye (2008) Remux 1080p Ukr/Eng | Sub Eng
Жанр: триллер, драма, жахи
Країна: США



Кінокомпанія: Lionsgate
Режисер: Хідео Наката, Ксав'єр Палю
Актори: Джесіка Альба, Александро Нівола, Паркер Поузі, Раде Шербеджия, Фернанда Ромеро, Оба Бабатунде, Дені Мора, Хлоя Морец, Брет Хаворт.

Сюжет:
Еллісон осліпла ще в дитинстві. Довгі роки в абсолютній темряві вона терпляче чекала тієї миті, коли за допомогою сучасної медицини знов зможе бачити. І ось, через двадцять років, настав довгоочікуваний момент - їй приживляють донорську рогівку.
Проте незабаром пересадженим їй донорським оком вона починає бачити в дзеркалі невиразні образи. У пошуках відповідей Еллісон намагається з'ясувати, що трапилося з попереднім власником ока.


Тривалість: 01:36:33
Якість: Remux 1080p
Відео:
кодек:
розмір кадру: 1920x1080
бітрейт: 17.8 Mб/с

Аудіо # 1:
мова: українська
переклад: багатоголосий закадровий
кодек: 2.0
бітрейт: 192 кб/с

Аудіо # 2:
мова: англійська
переклад: оригінал
кодек: -HD MA 7.1
бітрейт: 4797 кб/с

Субтитри:
мова: англійська
тип: програмні (м'які)
формат: *.srt
Скріншоти




MI
General
Unique ID : 8700622523988455815727443303047439277 (0x68BADCF5D3970CB9E32BEFBE21D23AD)
Complete name : K:\The Eye (2008) Remux 1080p [Ukr,Eng sub.Eng][Hurtom].
Format :
Format version : Version 4 / Version 2
File size : 15.3 GiB
Duration : 1 h 36 min
Overall bit rate mode : Variable
Overall bit rate : 22.8 Mb/s
Movie name : The Eye (2008) Remux 1080p [Ukr,Eng sub.Eng][Hurtom]
Encoded date : UTC 2018-08-12 14:27:35
Writing application : v24.0.0 ('Beyond The Pale') 64-bit
Writing library : libebml v1.3.6 + v1.4.9
Cover : Yes
Attachments : cover.png

Video
ID : 1
Format : AVC
Format/Info : Advanced Video Codec
Format profile : [email protected]
Format settings : CABAC / 3 Ref Frames
Format settings, CABAC : Yes
Format settings, ReFrames : 3 frames
Format settings, GOP : M=3, N=24
Codec ID : V_MPEG4/ISO/AVC
Duration : 1 h 36 min
Bit rate mode : Variable
Bit rate : 17.8 Mb/s
Maximum bit rate : 40.0 Mb/s
Width : 1 920 pixels
Height : 1 080 pixels
Display aspect ratio : 16:9
Frame rate mode : Constant
Frame rate : 23.976 (24000/1001) FPS
Color space : YUV
Chroma subsampling : 4:2:0
Bit depth : 8 bits
Scan type : Progressive
Bits/(Pixel*Frame) : 0.357
Stream size : 12.0 GiB (78%)
Title : The eye
Language : Russian
Default : Yes
Forced : No

Audio #1
ID : 2
Format : AC-3
Format/Info : Audio Coding 3
Codec ID : A_AC3
Duration : 1 h 36 min
Bit rate mode : Constant
Bit rate : 192 kb/s
Channel(s) : 2 channels
Channel positions : Front: L R
Sampling rate : 44.1 kHz
Frame rate : 28.711 FPS (1536 SPF)
Bit depth : 16 bits
Compression mode : Lossy
Stream size : 133 MiB (1%)
Title : DVO (Ukrainian) Новий Канал
Language : Ukrainian
Service kind : Complete Main
Default : Yes
Forced : Yes

Audio #2
ID : 3
Format :
Format/Info : Digital Theater Systems
Format profile : MA / Core
Codec ID : A_DTS
Duration : 1 h 36 min
Bit rate mode : Variable / Constant
Bit rate : 4 797 kb/s / 1 509 kb/s
Channel(s) : 8 channels / 6 channels
Channel positions : Front: L C R, Side: L R, Back: L R, LFE / Front: L C R, Side: L R, LFE
Sampling rate : 48.0 kHz
Frame rate : 93.750 FPS (512 SPF)
Bit depth : 24 bits
Compression mode : Lossless / Lossy
Stream size : 3.24 GiB (21%)
Title : The eye
Language : English
Default : No
Forced : No

Text
ID : 4
Format : UTF-8
Codec ID : S_TEXT/UTF8
Codec ID/Info : UTF-8 Plain Text
Duration : 1 h 27 min
Bit rate : 34 b/s
Count of elements : 766
Stream size : 22.3 KiB (0%)
Title : Eng
Language : English
Default : No
Forced : No
Джерело:
Особиста оцінка: 0 - не дивився


Золотий реліз (завантажене не впливає на рейтинг)
 Трекер:    Зареєстрований   

Завантажити / скачати фільм українською



відео для новачків



 Зареєстрований:   2018-08-13 08:11
 Розмір:   15.35 GB 
 Оцінка фільму:   10/10 (Голосів: 1)
   
Інші релізи
   Око / The Eye (2008) AVC Ukr/Eng | Sub Eng staf777  11 / 0   2.27 GB   2018-08-12 16:51 
   Око / The Eye (2008) 720p Ukr/Eng | Sub Eng staf777  2 / 0   5.39 GB   2017-02-16 19:12 
   Око / The Eye (2008) 1080p Ukr/Eng | Sub Eng famous37  1 / 0   7.76 GB   2016-02-14 18:50 
   Око / The eye (2008) Breniak  4 / 0   1.33 GB   2011-01-28 14:56 
bot 
робот


З нами з: 30.09.07
Востаннє: 26.05.05
Повідомлень: 20339

2018-08-13 08:11  
Тему перенесено з Анонси релізів до форуму Фільми в HD


staf777

jacklondon09 
Новенький


З нами з: 26.09.16
Востаннє: 13.12.18
Повідомлень: 3

2018-08-25 18:25  
Будь-ласка , дайте довантажити (зупинилось на 66.6% )
Дякую!

Ваш часовий пояс: GMT + 2 Години

Нова тема   Відповісти