Бембі / Bambi (1942) Remux 1080p 2xUkr/Eng | Sub Ukr/Eng — HD українською

Бембі / Bambi (1942) Remux 1080p 2xUkr/Eng | Sub Ukr/Eng

Нові коментарі

Нова тема   Відповісти
Автор Повідомлення
urij546724 
Відео Гуртом - фільмокрай
Відео Гуртом - фільмокрай


З нами з: 16.03.10
Востаннє: 20.08.18
Повідомлень: 5457

2018-08-12 14:40  
Бембі / Bambi (1942) Remux 1080p 2xUkr/Eng | Sub Ukr/Eng

Бембі / Bambi (1942) Remux 1080p 2xUkr/Eng | Sub Ukr/Eng
Альтернативний постер від t0mas'а:



Жанр: анімація, драма, сімейний
Країна: США



Кіностудія / кінокомпанія: Walt Disney Productions
Режисер: Джеймс Алгар (James Algar), Семьюел Армстронг (Samuel Armstrong)
Актори: Харді Олбрайт (Hardie Albright), Стен Александр (Stan Alexander), Бобетт Одрі (Bobette Audrey), Пітер Бен (Peter Behn), Тельма Бордман (Thelma Boardman), Джанет Чепмен (Janet Chapman)...

Сюжет:
Одного разу вранці на маленькій і освітленій весняним сонцем лісовій галявині народилося оленя. На нового лісового принца збіглися й злетілися подивитися всі звірі й птахи. Оленятко назвали Бембі.
Коли Бембі навчився ходити й розмовляти він завів собі друзів - кроленя Тампера і скунса Квіточку. А одного разу на галявині, куди привела його мати, Бембі познайомився з маленькою веселою оленихою - Фейлін. Але життя в лісі буває небезпечним і жорстоким. Вперше Бембі зіткнувся з цим, коли прозоре осіннє лісове повітря прошили постріли рушниць - всі звірі почали в паніці тікати, і тоді Бембі вперше почув страшне слово - Людина.


Тривалість: 01:09:50
Якість: Remux 1080p
Відео:
кодек:
розмір кадру: 1920 х 1080
бітрейт: ~23.4 мб/с (змінний)
частота кадрів: 23.976 к/с (fps)

Аудіо #1:
мова: українська
переклад: двоголосий закадровий
кодек: 2.0
бітрейт: 192 кб/с
запис звуку з каналу: ТВ4
озвучено: Медіа Дім Рава

Аудіо #2:
мова: українська
переклад: багатоголосий закадровий
кодек: 5.1
бітрейт: 384 кб/с
запис звуку з: касети VHS
озвучено: Так Треба Продакшн на замовлення відеокомпаніїї "ВІKКОН"

Аудіо #3:
мова: англійська
переклад: оригінал
кодек: -HRA 7.1
бітрейт: 2046 кб/с

Субтитри #1:
мова: українська
тип: програмні (м'які)
формат: *.srt

Субтитри #2:
мова: англійська
тип: програмні (м'які)
формат: *.srt
Media info:
General
Unique ID : 185363003495023266099364106214875368397 (0x8B739DABB4825AE3A96FFA5A3B148BCD)
Format :
Format version : Version 2
File size : 12.9 GiB
Duration : 1 h 9 min
Overall bit rate mode : Variable
Overall bit rate : 26.5 Mb/s
Movie name : Bambi (1942) [ukr.2xukr_eng, sub ukr_eng] Remux 1080p [Hurtom] by urij546724
Encoded date : UTC 2018-08-12 08:46:39
Writing application : v2.9.7 ('Tenderness') built on Jul 1 2009 18:43:35
Writing library : libebml v0.7.7 + v0.8.1
Attachments : Bambi (1942) [ukr.2xukr_eng, sub ukr_eng] Remux 1080p [Hurtom] by urij546724.jpg

Video
ID : 1
Format : AVC
Format/Info : Advanced Video Codec
Format profile : [email protected]
Format settings : CABAC / 4 Ref Frames
Format settings, CABAC : Yes
Format settings, ReFrames : 4 frames
Codec ID : V_MPEG4/ISO/AVC
Duration : 1 h 9 min
Bit rate mode : Variable
Bit rate : 23.4 Mb/s
Maximum bit rate : 38.0 Mb/s
Width : 1 920 pixels
Height : 1 080 pixels
Display aspect ratio : 16:9
Frame rate mode : Constant
Frame rate : 23.976 (24000/1001) FPS
Color space : YUV
Chroma subsampling : 4:2:0
Bit depth : 8 bits
Scan type : Progressive
Bits/(Pixel*Frame) : 0.470
Stream size : 11.4 GiB (88%)
Title : Bambi (1942) Remux 1080p [Hurtom] by urij546724
Language : English
Default : Yes
Forced : No
Color range : Limited
Color primaries : BT.709
Transfer characteristics : BT.709
Matrix coefficients : BT.709

Audio #1
ID : 2
Format : AC-3
Format/Info : Audio Coding 3
Codec ID : A_AC3
Duration : 1 h 9 min
Bit rate mode : Constant
Bit rate : 192 kb/s
Channel(s) : 2 channels
Channel positions : Front: L R
Sampling rate : 48.0 kHz
Frame rate : 31.250 FPS (1536 SPF)
Bit depth : 16 bits
Compression mode : Lossy
Stream size : 95.9 MiB (1%)
Title : Українська доріжка (Медіа Дім Рава)
Language : Ukrainian
Service kind : Complete Main
Default : Yes
Forced : Yes

Audio #2
ID : 3
Format : AC-3
Format/Info : Audio Coding 3
Codec ID : A_AC3
Duration : 1 h 9 min
Bit rate mode : Constant
Bit rate : 384 kb/s
Channel(s) : 6 channels
Channel positions : Front: L C R, Side: L R, LFE
Sampling rate : 48.0 kHz
Frame rate : 31.250 FPS (1536 SPF)
Bit depth : 16 bits
Compression mode : Lossy
Stream size : 192 MiB (1%)
Title : Українська доріжка (ТакТребаПродакшн на замовлення відеокомпаніїї ВІKКОН)
Language : Ukrainian
Service kind : Complete Main
Default : No
Forced : No

Audio #3
ID : 4
Format :
Format/Info : Digital Theater Systems
Format profile : HRA / Core
Codec ID : A_DTS
Duration : 1 h 9 min
Bit rate mode : Constant
Bit rate : 2 046 kb/s / 1 509 kb/s
Channel(s) : 8 channels / 6 channels
Channel positions : Front: L C R, Side: L R, Back: L R, LFE / Front: L C R, Side: L R, LFE
Sampling rate : 48.0 kHz
Frame rate : 93.750 FPS (512 SPF)
Bit depth : 24 bits
Compression mode : Lossy
Stream size : 1 022 MiB (8%)
Title : Оригінальна доріжка
Language : English
Default : No
Forced : No

Text #1
ID : 5
Format : UTF-8
Codec ID : S_TEXT/UTF8
Codec ID/Info : UTF-8 Plain Text
Title : Українські субтитри
Language : Ukrainian
Default : No
Forced : No

Text #2
ID : 6
Format : UTF-8
Codec ID : S_TEXT/UTF8
Codec ID/Info : UTF-8 Plain Text
Title : Оригінальні субтитри
Language : English
Default : No
Forced : No
Скріншоти:





Трейлери:



Семпл
Джерело 1_________Джерело 2_________Джерело 3_________Джерело 4_________Джерело 5
У випадку, якщо з усіх джерел семпл видалять, прохання повідомити мені у ПРИВАТ


Подяка:

1. Пану urij546724 і Пану MutuLI за запис звуку.
2. Пану t0mas за українізацію постера.


Джерело:


Золотий реліз (завантажене не впливає на рейтинг)
 Трекер:    Зареєстрований   

Завантажити / скачати мультфільм українською



відео для новачків



 Зареєстрований:   2018-08-12 14:40
 Розмір:   12.94 GB 
 Оцінка мультфільму:   10/10 (Голосів: 3)
 Прохання залишати коментарі і не тікати з роздачі.
   
Інші релізи
   Бембі / Bambi (1942) Ukr/Eng rooster  12 / 1   1.45 GB   2011-09-25 18:02 
igor911 
Відео Гуртом
Відео Гуртом


З нами з: 18.01.08
Востаннє: 20.08.18
Повідомлень: 10756

2018-08-12 20:16  
на рутрекері вказане джерело блурея: "Відеосервіс Україна", 2011 р. (з українського - лише зворот обкладинки та субтитри):
Скан обкладинки та диска:



Ваш часовий пояс: GMT + 2 Години

Нова тема   Відповісти