Кінець дитинства (Сезон 1) / Childhood's End (Season 1) (2015) 1080p 2xUkr/Eng | Sub Eng

Нові коментарі

Нова тема   Відповісти
Автор Повідомлення
Anonymous 







2018-08-12 12:04  
Кінець дитинства (Сезон 1) / Childhood's End (Season 1) (2015) 1080p 2xUkr/Eng | Sub Eng

Кінець дитинства (Сезон 1) / Childhood's End (Season 1) (2015) 1080p 2xUkr/Eng | Sub Eng


Жанр: драма, фантастика, трилер
Країна: США



Кінокомпанія: Universal Cable Productions, Weed Road Pictures
Режисер: Нік Харран (Nick Hurran)
Актори: Майк Фоґель (Mike Vogel), Озі Ікхайл (Osy Ikhile), Дейзі Беттс (Daisy Betts), Джорджина Хейґ (Georgina Haig), Чарльз Денс (Charles Dance), Ешлі Цукерман (Ashley Zukerman), Гейлі Маґнус (Hayley Magnus), Шарлотта Нікдао (Charlotte Nicdao), Сесілія Дьюар (Cecilia Dewar),Яель Стоун (Yael Stone), Лачлан Роланд-Кенн (Lachlan Roland-Kenn) та інші.

Сюжет:
Екранізація популярного роману Артура Кларка про контакт з неземною цивілізацією. Дія серіалу починається в 2016 році. Над більшістю земних мегаполісів з'являються величезні кораблі. Раса могутніх прибульців відвідує Землю. Надволодарі, так їх прозвали, демонструють величезну перевагу своїх технологій над земними, негайно припинивши всі великі військові конфлікти. В якості посередника для спілкування з землянами, прибульці вибирають не одного з політичних лідерів, а звичайного землянина, фермера з американської глибинки Ріккі Стормґрена. Прибулець Карелл під час зустрічей пояснює свою позицію: землянам належить пройти виховання і поступове навчання. На Землі починається Золоте століття. Подарунок прибульців Стормґрену допомагає багатьом зцілитися від невиліковних захворювань. Однак не всім до душі примус, нехай навіть м'який і здійснюваний зовні з найкращих спонукань. На Землі виникає і набирає силу опір проти прибульців.


Тривалість: 1 серія: 80-85 хв. (цілком серій: 3)
Перелік серій
01) Надволодарі / The Overlords
02) Обманщики / The Deceivers
03) Діти / The Children
Якість:
Відео:
кодек:
розмір кадру: 1920 х 1080
бітрейт: ~16 мб/с

Аудіо # 1:
мова: українська
переклад: багатоголосий закадровий | Воля Cine+
кодек: 2.0
бітрейт: 192 кб/с

Джерело озвучення:


Аудіо # 2:
мова: українська
переклад: багатоголосий закадровий | Dzuski
кодек: 2.0
бітрейт: 192 кб/с

Джерело озвучення:


Аудіо # 3:
мова: англійська
переклад: оригінал
кодек: 5.1
бітрейт: 1509 кб/с

Субтитри:
мова: англійська
тип: програмні (м'які)
формат: *.srt
Info
General
Unique ID : 185852181088483107415124675492244344947 (0x8BD1D3FCF8DFAEB9A8FC9E614667D073)
Complete name : E:\Support\Childhood's End (Season 1) [, 1080p, Ukr, Eng]\Childhood's End. S01E01. The Overlords.
Format :
Format version : Version 4 / Version 2
File size : 10.9 GiB
Duration : 1 h 21 min
Overall bit rate : 19.1 Mb/s
Encoded date : UTC 2018-09-11 19:33:43
Writing application : v26.0.0 ('In The Game') 64-bit
Writing library : libebml v1.3.6 + v1.4.9

Video
ID : 1
Format : AVC
Format/Info : Advanced Video Codec
Format profile : [email protected]
Format settings : CABAC / 4 Ref Frames
Format settings, CABAC : Yes
Format settings, ReFrames : 4 frames
Codec ID : V_MPEG4/ISO/AVC
Duration : 1 h 21 min
Bit rate : 17.2 Mb/s
Width : 1 920 pixels
Height : 1 080 pixels
Display aspect ratio : 16:9
Frame rate mode : Constant
Frame rate : 23.976 (24000/1001) FPS
Color space : YUV
Chroma subsampling : 4:2:0
Bit depth : 8 bits
Scan type : Progressive
Bits/(Pixel*Frame) : 0.345
Stream size : 9.82 GiB (90%)
Writing library : core 148 r2665kMod a01e339
Encoding settings : cabac=1 / ref=4 / deblock=1:-3:-3 / analyse=0x3:0x133 / me=umh / subme=9 / psy=1 / fade_compensate=0.00 / psy_rd=1.00:0.00 / mixed_ref=1 / me_range=32 / chroma_me=1 / trellis=2 / 8x8dct=1 / cqm=0 / deadzone=21,11 / fast_pskip=0 / chroma_qp_offset=-2 / threads=6 / lookahead_threads=1 / sliced_threads=0 / nr=0 / decimate=0 / interlaced=0 / bluray_compat=0 / constrained_intra=0 / fgo=0 / bframes=8 / b_pyramid=2 / b_adapt=2 / b_bias=0 / direct=3 / weightb=1 / open_gop=0 / weightp=2 / keyint=250 / keyint_min=23 / scenecut=40 / intra_refresh=0 / rc=crf / mbtree=0 / crf=19.0000 / qcomp=0.60 / qpmin=0 / qpmax=69 / qpstep=4 / ip_ratio=1.40 / pb_ratio=1.30 / aq=3:0.95
Language : English
Default : Yes
Forced : No

Audio #1
ID : 2
Format : AC-3
Format/Info : Audio Coding 3
Commercial name : Dolby Digital
Codec ID : A_AC3
Duration : 1 h 21 min
Bit rate mode : Constant
Bit rate : 192 kb/s
Channel(s) : 2 channels
Channel positions : Front: L R
Sampling rate : 48.0 kHz
Frame rate : 31.250 FPS (1536 SPF)
Bit depth : 16 bits
Compression mode : Lossy
Stream size : 113 MiB (1%)
Title : Cine+
Language : Ukrainian
Service kind : Complete Main
Default : Yes
Forced : No

Audio #2
ID : 3
Format : AC-3
Format/Info : Audio Coding 3
Commercial name : Dolby Digital
Codec ID : A_AC3
Duration : 1 h 21 min
Bit rate mode : Constant
Bit rate : 192 kb/s
Channel(s) : 2 channels
Channel positions : Front: L R
Sampling rate : 48.0 kHz
Frame rate : 31.250 FPS (1536 SPF)
Bit depth : 16 bits
Compression mode : Lossy
Stream size : 113 MiB (1%)
Title : Dzuski
Language : Ukrainian
Service kind : Complete Main
Default : No
Forced : No

Audio #3
ID : 4
Format :
Format/Info : Digital Theater Systems
Codec ID : A_DTS
Duration : 1 h 21 min
Bit rate mode : Constant
Bit rate : 1 509 kb/s
Channel(s) : 6 channels
Channel positions : Front: L C R, Side: L R, LFE
Sampling rate : 48.0 kHz
Frame rate : 93.750 FPS (512 SPF)
Bit depth : 24 bits
Compression mode : Lossy
Stream size : 884 MiB (8%)
Language : English
Default : No
Forced : No

Text
ID : 5
Format : UTF-8
Codec ID : S_TEXT/UTF8
Codec ID/Info : UTF-8 Plain Text
Duration : 1 h 20 min
Bit rate : 63 b/s
Count of elements : 1176
Stream size : 37.9 KiB (0%)
Language : English
Default : No
Forced : No

Menu
00:00:00.000 : en:Chapter 1
00:10:37.011 : en:Chapter 2
00:21:16.150 : en:Chapter 3
00:27:39.366 : en:Chapter 4
00:33:48.944 : en:Chapter 5
00:42:50.777 : en:Chapter 6
00:49:27.631 : en:Chapter 7
00:55:25.322 : en:Chapter 8
01:00:47.853 : en:Chapter 9
01:08:36.279 : en:Chapter 10
01:17:17.174 : en:Chapter 11
01:21:23.504 : en:Chapter 12
Скріншоти

Дякую Sando7 за запис з ТБ, mishka1998 за постер

Джерело: &
Особиста оцінка: 8 - мені сподобалося


Золотий реліз (завантажене не впливає на рейтинг)
 Трекер:    Зареєстрований   

Завантажити / скачати серіал українською



відео для новачків



 Зареєстрований:   2018-09-14 20:57
 Розмір:   31.38 GB 
 Оцінка серіалу:   10/10 (Голосів: 11)
   
bot 
робот


З нами з: 30.09.07
Востаннє: 26.05.05
Повідомлень: 19979

2018-08-12 12:04  
Тему перенесено з Серіали в HD до форуму Анонси релізів


Neytreenor

leicheman 
Відео Гуртом - підтримка та поширення
Відео Гуртом - підтримка та поширення


З нами з: 03.07.14
Востаннє: 21.10.18
Повідомлень: 2844

2018-08-12 14:14  
Бендер передумав робити?
Anonymous 







2018-08-12 16:54  
leicheman написано:
Бендер передумав робити?

Він поступився правом Happy

Додано через 2 години 31 хвилину 45 секунд:

Якщо будуть охочі завантажити і, що найголовніше, сидувати, то можу зробити й реліз у 1080p, ~17.2 Mbit/s відео, важитиме ~30GB.

-_-В_E_N_D_Е_R-_- 
Забанено
Забанено


З нами з: 11.07.18
Востаннє: 23.08.18
Повідомлень: 547

2018-08-12 18:25  
Anonymous написано:
Джерело озвучення:

Якось я на сайті волі знайшов їхні
логотипи до каналів Wide grin Wide grin Wide grin (і такі чудеса бувають)





leicheman 
Відео Гуртом - підтримка та поширення
Відео Гуртом - підтримка та поширення


З нами з: 03.07.14
Востаннє: 21.10.18
Повідомлень: 2844

2018-08-12 20:47  
Anonymous написано:
Якщо будуть охочі завантажити і, що найголовніше, сидувати, то можу зробити й реліз у 1080p, ~17.2 Mbit/s відео, важитиме ~30GB.

А ремуксів живих часом немає? Я б Авц ріпнув.

Anonymous 







2018-08-12 21:40  
leicheman написано:
А ремуксів живих часом немає? Я б Авц ріпнув.

Знайшов одну живу роздачу, але там один і дуже повільний сид, вантажитися до нового року буде. Зроби з 1080p, вони якісні, на AVC різниці помітно не буде.

leicheman 
Відео Гуртом - підтримка та поширення
Відео Гуртом - підтримка та поширення


З нами з: 03.07.14
Востаннє: 21.10.18
Повідомлень: 2844

2018-08-12 22:07  
Anonymous написано:
Знайшов одну живу роздачу, але там один і дуже повільний сид, вантажитися до нового року буде. Зроби з 1080p, вони якісні, на AVC різниці помітно не буде.

Станьте, будь ласка, на фекс, або якщо будете все таке роздачу робити тоді почекаю на неї Happy

Anonymous 







2018-08-12 22:11  
leicheman написано:
Станьте, будь ласка, на фекс, або якщо будете все таке роздачу робити тоді почекаю на неї Happy

Нічого не зрозумів Sad (1)

Electroz 
Відео Гуртом - підтримка та поширення
Відео Гуртом - підтримка та поширення


З нами з: 18.09.14
Востаннє: 21.10.18
Повідомлень: 3032

2018-08-12 22:56  
Anonymous
Скинь йому ріп в пп.

Anonymous 







2018-08-13 07:32  
Electroz написано:
Скинь йому ріп в пп.

Ті ріпи не проблема з мережі завантажити.

leicheman 
Відео Гуртом - підтримка та поширення
Відео Гуртом - підтримка та поширення


З нами з: 03.07.14
Востаннє: 21.10.18
Повідомлень: 2844

2018-08-13 08:39  
Anonymous написано:
Нічого не зрозумів

То автозаміна просто. Там було скиньте Happy

Anonymous написано:
Ті ріпи не проблема з мережі завантажити

Ну у мене немає акаунтів на закритих трекерах, а на кінозалі та рутрекері роздає одна людина і то не завжди.

Anonymous 







2018-08-13 08:47  
leicheman написано:
на кінозалі та рутрекері роздає одна людина і то не завжди

Сам за півсуботи завантажив з рутрекера, там далеко не один сид. А на fex такий об'єм довго заливати Sad (1).
Як не качає - можеш почекати, я на разі схиляюсь таки до того, аби зарелізити 1080p.

leicheman 
Відео Гуртом - підтримка та поширення
Відео Гуртом - підтримка та поширення


З нами з: 03.07.14
Востаннє: 21.10.18
Повідомлень: 2844

2018-08-13 09:01  
Anonymous написано:
Сам за півсуботи завантажив з рутрекера, там далеко не один сид

Ну просто коли я дивився то завжди один був, але якщо так то спробую завантажити Happy

bot 
робот


З нами з: 30.09.07
Востаннє: 26.05.05
Повідомлень: 19979

2018-08-18 10:12  
Тему перенесено з Анонси релізів до форуму Серіали в HD


Neytreenor

Anonymous 







2018-08-18 10:14  
Прохання до модераторів дати роздачі золото, бо важка.

І не зададить тему від зайвого почистити.

Anonymous 







2018-08-20 19:18  
Виявляється, команда Dzuski як раз робить любительску озвучку цього міні-серіалу (ідеально обрали, що і коли озвучувати, ага). Коли буде третє серія - постараюся додати і те озвучення.
Anonymous 







2018-09-14 20:59  
Додав озвучення від Dzuski.
Ваш часовий пояс: GMT + 2 Години

Нова тема   Відповісти