Брудні танці 2. Гаванські ночі / Dirty Dancing 2. Havana nights (2004) 720p 3xUkr/Eng | Sub Eng

Нові коментарі

Нова тема   Відповісти
Автор Повідомлення
Anonymous 







2018-08-12 09:31  
Брудні танці 2. Гаванські ночі / Dirty Dancing 2. Havana nights (2004) 720p 3xUkr/Eng | Sub Eng

Брудні танці 2. Гаванські ночі / Dirty Dancing 2. Havana nights (2004) 720p 3xUkr/Eng | Sub Eng


Жанр: мелодрама, драма
Країна: США



Кінокомпанія: Lions Gate Films, Miramax, Lawrence Bender Productions, A Band Apart, Havana Nights LLC, Artisan Entertainment
Режисер: Гай Ферленд
Актори: Дієго Луна, Ромола Гарай, Села Ворд, Джон Слеттері, Дженьюері Джонс, Патрік Свейзі, Роберт Гоффман, Майя Геррісон та інші

Сюжет:
18-річна Кейті Міллер (Ромола Гарай) приїхала в Гавану з родиною з Чікаго. Вона хоче вступити в престижний коледж, але мріє стати танцівницею. Випадково в готелі вона знайомиться з офіціантом Хав'єром (Дієго Луна), який виявився танцівником. Хав'єр погоджується навчити її мистецтву танцю...


Тривалість: 01:26:13
Якість: 720p
Відео:
кодек:
розмір кадру: 1280х720
бітрейт: 5 747 кб/с

Аудіо # 1:
мова: українська
переклад: багатоголосий закадровий
кодек: 2.0
бітрейт: 192 кб/с

Аудіо # 2:
мова: українська
переклад: багатоголосий закадровий
кодек: 2.0
бітрейт: 192 кб/с

Аудіо # 3:
мова: українська
переклад: багатоголосий закадровий
кодек: 2.0
бітрейт: 192 кб/с

Аудіо # 4:
мова: англійська
переклад: оригінал
кодек: 5.1
бітрейт: 448 кб/с

Субтитри:
мова: англійська
тип: програмні (м'які)
формат: *.srt
Info
General
Unique ID : 172784054904785307245970362092334353411 (0x81FCFF9F5BF046BC9768C1EF26AC0C03)
Format :
Format version : Version 4 / Version 2
File size : 4.08 GiB
Duration : 1 h 26 min
Overall bit rate : 6 768 kb/s
Encoded date : UTC 2018-08-12 07:21:59
Writing application : v6.1.0 ('Old Devil') built on Mar 4 2013 09:10:42
Writing library : libebml v1.3.0 + v1.4.0

Video
ID : 1
Format : AVC
Format/Info : Advanced Video Codec
Format profile : [email protected]
Format settings : CABAC / 5 Ref Frames
Format settings, CABAC : Yes
Format settings, ReFrames : 5 frames
Codec ID : V_MPEG4/ISO/AVC
Duration : 1 h 26 min
Bit rate : 5 747 kb/s
Width : 1 280 pixels
Height : 720 pixels
Display aspect ratio : 16:9
Frame rate mode : Constant
Frame rate : 23.976 (24000/1001) FPS
Color space : YUV
Chroma subsampling : 4:2:0
Bit depth : 8 bits
Scan type : Progressive
Bits/(Pixel*Frame) : 0.260
Stream size : 3.38 GiB (83%)
Writing library : core 122 r2184 5c85e0a
Encoding settings : cabac=1 / ref=5 / deblock=1:0:0 / analyse=0x3:0x113 / me=umh / subme=8 / psy=1 / psy_rd=1.00:0.00 / mixed_ref=1 / me_range=16 / chroma_me=1 / trellis=1 / 8x8dct=1 / cqm=0 / deadzone=21,11 / fast_pskip=1 / chroma_qp_offset=-2 / threads=12 / sliced_threads=0 / nr=0 / decimate=1 / interlaced=0 / bluray_compat=0 / constrained_intra=0 / bframes=3 / b_pyramid=2 / b_adapt=2 / b_bias=0 / direct=3 / weightb=1 / open_gop=0 / weightp=2 / keyint=240 / keyint_min=24 / scenecut=40 / intra_refresh=0 / rc_lookahead=50 / rc=2pass / mbtree=1 / bitrate=5747 / ratetol=1.0 / qcomp=0.60 / qpmin=0 / qpmax=69 / qpstep=4 / cplxblur=20.0 / qblur=0.5 / ip_ratio=1.40 / aq=1:1.00
Language : English
Default : Yes
Forced : No

Audio #1
ID : 2
Format : AC-3
Format/Info : Audio Coding 3
Codec ID : A_AC3
Duration : 1 h 26 min
Bit rate mode : Constant
Bit rate : 192 kb/s
Channel(s) : 2 channels
Channel positions : Front: L R
Sampling rate : 48.0 kHz
Frame rate : 31.250 FPS (1536 SPF)
Bit depth : 16 bits
Compression mode : Lossy
Stream size : 118 MiB (3%)
Title : UKR (СТБ)
Language : Ukrainian
Service kind : Complete Main
Default : Yes
Forced : Yes

Audio #2
ID : 3
Format : AC-3
Format/Info : Audio Coding 3
Codec ID : A_AC3
Duration : 1 h 26 min
Bit rate mode : Constant
Bit rate : 192 kb/s
Channel(s) : 2 channels
Channel positions : Front: L R
Sampling rate : 48.0 kHz
Frame rate : 31.250 FPS (1536 SPF)
Bit depth : 16 bits
Compression mode : Lossy
Stream size : 118 MiB (3%)
Title : UKR (K1)
Language : Ukrainian
Service kind : Complete Main
Default : No
Forced : No

Audio #3
ID : 4
Format : AC-3
Format/Info : Audio Coding 3
Codec ID : A_AC3
Duration : 1 h 26 min
Bit rate mode : Constant
Bit rate : 192 kb/s
Channel(s) : 2 channels
Channel positions : Front: L R
Sampling rate : 48.0 kHz
Frame rate : 31.250 FPS (1536 SPF)
Bit depth : 16 bits
Compression mode : Lossy
Stream size : 118 MiB (3%)
Title : UKR (TET)
Language : Ukrainian
Service kind : Complete Main
Default : No
Forced : No

Audio #4
ID : 5
Format : AC-3
Format/Info : Audio Coding 3
Codec ID : A_AC3
Duration : 1 h 26 min
Bit rate mode : Constant
Bit rate : 448 kb/s
Channel(s) : 6 channels
Channel positions : Front: L C R, Side: L R, LFE
Sampling rate : 48.0 kHz
Frame rate : 31.250 FPS (1536 SPF)
Bit depth : 16 bits
Compression mode : Lossy
Stream size : 276 MiB (7%)
Language : English
Service kind : Complete Main
Default : No
Forced : No

Text
ID : 6
Format : UTF-8
Codec ID : S_TEXT/UTF8
Codec ID/Info : UTF-8 Plain Text
Language : English
Default : No
Forced : No

Menu
00:00:00.000 : en:00:00:00.000
00:05:39.965 : en:00:05:39.965
00:11:52.420 : en:00:11:52.420
00:17:33.844 : en:00:17:33.844
00:20:15.798 : en:00:20:15.798
00:26:54.863 : en:00:26:54.863
00:31:22.130 : en:00:31:22.130
00:35:17.991 : en:00:35:17.991
00:40:33.222 : en:00:40:33.222
00:50:15.221 : en:00:50:15.221
00:54:01.488 : en:00:54:01.488
01:00:06.937 : en:01:00:06.937
01:06:10.133 : en:01:06:10.133
01:13:07.300 : en:01:13:07.300
01:17:05.162 : en:01:17:05.162
01:19:45.280 : en:01:19:45.280
Скріншоти







За запис з К1 та ТЕТ дякую пану slavik_v_z, синхронізація - п. Arsenfpu
За доріжку від СТБ дякую пану SsashI
За постер дякую пану Ermolenko
Особиста подяка пану denixx за надану матеріальну допомогу на підтримку цього і майбутніх релізів.
Джерело:


Срібний реліз (на рейтинг впливає 50% завантаженого)
 Трекер:    Зареєстрований   

Завантажити / скачати фільм українською



відео для новачків



 Зареєстрований:   2018-08-12 09:31
 Розмір:   4.08 GB 
 Оцінка фільму:   10/10 (Голосів: 4)
   
Ваш часовий пояс: GMT + 2 Години

Нова тема   Відповісти