Воїни світла / Daybreakers (2009) 1080p 2xUkr/Eng | Sub Eng

Нові коментарі

Нова тема   Відповісти
Автор Повідомлення
Anonymous 







2018-08-12 10:16  
Воїни світла / Daybreakers (2009) 1080p 2xUkr/Eng | Sub Eng

Воїни світла / Daybreakers (2009) 1080p 2xUkr/Eng | Sub Eng


Жанр: жахи, фантастика, екшн
Країна: США



Кінокомпанія: Lionsgate, Australian Film Finance Corporation (AFFC), Pictures in Paradise
Режисер: Майкл Спіріг
Актори: Ітан Хоук, Ізабель Лукас, Уіллем Дафо, Клаудія Карван, Майкл Дорман, Джей Лагаая, Габріелла Ді Лабіо

Сюжет:
2017 рік. Глобальна епідемія перетворила більшість людей у вампірів, людство опинилося на межі вимирання. Однак, безтурботне майбутнє не світить і кровососам: в умовах дефіциту крові вони або змушені плекати кожну живу людську істоту, або синтезувати замінник крові. Протистояти кінцю світу намагається група вчених, яка шукає засоби боротьби проти вампірів.


Тривалість: 01:37:48
Якість: 1080p
Відео:
кодек:
розмір кадру: 1920х816
бітрейт: 10.7 Мб/с

Аудіо # 1:
мова: українська
переклад: двоголосий закадровий
кодек: 2.0
бітрейт: 192 кб/с

Аудіо # 2:
мова: українська
переклад: двоголосий закадровий
кодек: 2.0
бітрейт: 192 кб/с

Аудіо # 3:
мова: англійська
переклад: оригінал
кодек: 5.1
бітрейт: 448 кб/с

Субтитри:
мова: англійська
тип: програмні (м'які)
формат: *.srt
Info
General
Unique ID : 190863896494124708572340352272103406164 (0x8F970CA2990BBF6BA44B5E53F7287A54)
Format :
Format version : Version 4 / Version 2
File size : 7.91 GiB
Duration : 1 h 37 min
Overall bit rate : 11.6 Mb/s
Encoded date : UTC 2018-08-12 07:08:23
Writing application : v6.1.0 ('Old Devil') built on Mar 4 2013 09:10:42
Writing library : libebml v1.3.0 + v1.4.0

Video
ID : 1
Format : AVC
Format/Info : Advanced Video Codec
Format profile : [email protected]
Format settings : CABAC / 5 Ref Frames
Format settings, CABAC : Yes
Format settings, ReFrames : 5 frames
Codec ID : V_MPEG4/ISO/AVC
Duration : 1 h 37 min
Bit rate : 10.7 Mb/s
Width : 1 920 pixels
Height : 816 pixels
Display aspect ratio : 2.35:1
Frame rate mode : Constant
Frame rate : 23.976 (24000/1001) FPS
Color space : YUV
Chroma subsampling : 4:2:0
Bit depth : 8 bits
Scan type : Progressive
Bits/(Pixel*Frame) : 0.286
Stream size : 7.18 GiB (91%)
Writing library : core 140 r2377 1ca7bb9
Encoding settings : cabac=1 / ref=5 / deblock=1:-3:-3 / analyse=0x3:0x113 / me=umh / subme=11 / psy=1 / psy_rd=0.90:0.05 / mixed_ref=1 / me_range=32 / chroma_me=1 / trellis=2 / 8x8dct=1 / cqm=0 / deadzone=21,11 / fast_pskip=0 / chroma_qp_offset=-3 / threads=6 / lookahead_threads=1 / sliced_threads=0 / nr=0 / decimate=1 / interlaced=0 / bluray_compat=0 / constrained_intra=0 / bframes=9 / b_pyramid=2 / b_adapt=2 / b_bias=0 / direct=3 / weightb=1 / open_gop=0 / weightp=2 / keyint=240 / keyint_min=23 / scenecut=40 / intra_refresh=0 / rc_lookahead=40 / rc=2pass / mbtree=0 / bitrate=10740 / ratetol=1.0 / qcomp=0.65 / qpmin=0 / qpmax=69 / qpstep=4 / cplxblur=20.0 / qblur=0.5 / vbv_maxrate=50000 / vbv_bufsize=62500 / nal_hrd=none / filler=0 / ip_ratio=1.30 / pb_ratio=1.20 / aq=1:0.80
Language : English
Default : Yes
Forced : No
Color range : Limited
Color primaries : BT.709
Transfer characteristics : BT.709
Matrix coefficients : BT.709

Audio #1
ID : 2
Format : AC-3
Format/Info : Audio Coding 3
Codec ID : A_AC3
Duration : 1 h 37 min
Bit rate mode : Constant
Bit rate : 192 kb/s
Channel(s) : 2 channels
Channel positions : Front: L R
Sampling rate : 48.0 kHz
Frame rate : 31.250 FPS (1536 SPF)
Bit depth : 16 bits
Compression mode : Lossy
Stream size : 134 MiB (2%)
Title : UKR (Новий)
Language : Ukrainian
Service kind : Complete Main
Default : Yes
Forced : Yes

Audio #2
ID : 3
Format : AC-3
Format/Info : Audio Coding 3
Codec ID : A_AC3
Duration : 1 h 37 min
Bit rate mode : Constant
Bit rate : 192 kb/s
Channel(s) : 2 channels
Channel positions : Front: L R
Sampling rate : 48.0 kHz
Frame rate : 31.250 FPS (1536 SPF)
Bit depth : 16 bits
Compression mode : Lossy
Stream size : 134 MiB (2%)
Title : UKR (НТН)
Language : Ukrainian
Service kind : Complete Main
Default : No
Forced : No

Audio #3
ID : 4
Format : AC-3
Format/Info : Audio Coding 3
Codec ID : A_AC3
Duration : 1 h 37 min
Bit rate mode : Constant
Bit rate : 448 kb/s
Channel(s) : 6 channels
Channel positions : Front: L C R, Side: L R, LFE
Sampling rate : 48.0 kHz
Frame rate : 31.250 FPS (1536 SPF)
Bit depth : 16 bits
Compression mode : Lossy
Stream size : 313 MiB (4%)
Language : English
Service kind : Complete Main
Default : No
Forced : No

Text
ID : 5
Format : UTF-8
Codec ID : S_TEXT/UTF8
Codec ID/Info : UTF-8 Plain Text
Language : English
Default : No
Forced : No

Menu
00:00:00.000 : en:00:00:00.000
00:04:39.612 : en:00:04:39.612
00:08:24.170 : en:00:08:24.170
00:18:33.570 : en:00:18:33.570
00:24:06.945 : en:00:24:06.945
00:33:59.787 : en:00:33:59.787
00:37:39.298 : en:00:37:39.298
00:40:42.523 : en:00:40:42.523
00:46:53.769 : en:00:46:53.769
00:51:31.046 : en:00:51:31.046
00:57:14.639 : en:00:57:14.639
01:00:21.284 : en:01:00:21.284
01:05:41.729 : en:01:05:41.729
01:10:44.657 : en:01:10:44.657
01:14:23.625 : en:01:14:23.625
01:23:53.903 : en:01:23:53.903
Скріншоти







За доріжку від Нового дякую панам Neo777, MAKAPOHHIK та Skiff
За доріжку від НТН панам РОМЕО та Arsenfpu
Особиста подяка пану denixx за надану матеріальну допомогу на підтримку цього і майбутніх релізів.
Джерело:


 Трекер:    Зареєстрований   

Завантажити / скачати фільм українською



відео для новачків



 Зареєстрований:   2018-08-12 10:16
 Розмір:   7.91 GB 
 Оцінка фільму:   9.2/10 (Голосів: 5)
   
Інші релізи
   Воїни світла / Daybreakers (2009) 2xUkr/Eng Arsenfpu  5 / 0   1.73 GB   2015-11-15 17:39 
   Воїни світла / Daybreakers (2009) 720p-mini Ukr/Eng | Sub Eng ThEO  3 / 0   2.37 GB   2011-07-25 13:08 
   Воїни світла / Daybreakers (2009) Ukr/Eng | Sub Eng Neo777  4 / 0   1.95 GB   2011-07-22 14:39 
Ваш часовий пояс: GMT + 2 Години

Нова тема   Відповісти