Реванш / The Take (2007) 1080p Ukr/Eng | Sub Eng

Нові коментарі

Нова тема   Відповісти
Автор Повідомлення
Anonymous 







2018-08-12 10:01  
Реванш / The Take (2007) 1080p Ukr/Eng | Sub Eng

Реванш / The Take (2007) 1080p Ukr/Eng | Sub Eng


Жанр: екшн, кримінальний, драма
Країна: США



Кінокомпанія: Hatchet Films, Ithaka Entertainment
Режисер: Бред Фурман
Актори: Джон Леґуізамо, Тайріз Ґібсон, Розі Перез, Боббі Каннавейл, Метью Гатчет, Юл Васкез, Карлос Санс, Джейк Максворфі, Лоуренс Мейсон, Роджер Женвер Смітт

Сюжет:
Постріл у голову ... холоднокровне вбивство - вірний спосіб замести сліди будь-якого злочину ... Але, що, якщо небувалі людські ресурси і самовіддана підтримка близьких - вносять корективи в прекрасно сплановану схему злочину?


Тривалість: 01:39:12
Якість: 1080p
Відео:
кодек:
розмір кадру: 1920х1080
бітрейт: 13.9 Мб/с

Аудіо # 1:
мова: українська
переклад: багатоголосий закадровий
кодек: 2.0
бітрейт: 192 кб/с

Аудіо # 2:
мова: англійська
переклад: оригінал
кодек: E- 5.1
бітрейт: 640 кб/с

Субтитри №1 - 2:
мова: англійська (повні, SDH)
тип: програмні (м'які)
формат: *.srt
Info
General
Unique ID : 217861639397884043995261863224266863783 (0xA3E6A02117F48D0794A203A288B634A7)
Format :
Format version : Version 4 / Version 2
File size : 10.4 GiB
Duration : 1 h 39 min
Overall bit rate : 15.0 Mb/s
Encoded date : UTC 2018-08-12 06:52:35
Writing application : v6.1.0 ('Old Devil') built on Mar 4 2013 09:10:42
Writing library : libebml v1.3.0 + v1.4.0

Video
ID : 1
Format : AVC
Format/Info : Advanced Video Codec
Format profile : [email protected]
Format settings : CABAC / 4 Ref Frames
Format settings, CABAC : Yes
Format settings, ReFrames : 4 frames
Codec ID : V_MPEG4/ISO/AVC
Duration : 1 h 39 min
Bit rate : 13.9 Mb/s
Width : 1 920 pixels
Height : 1 080 pixels
Display aspect ratio : 16:9
Frame rate mode : Constant
Frame rate : 23.976 (24000/1001) FPS
Color space : YUV
Chroma subsampling : 4:2:0
Bit depth : 8 bits
Scan type : Progressive
Bits/(Pixel*Frame) : 0.279
Stream size : 9.61 GiB (92%)
Default : Yes
Forced : No
Color range : Limited
Color primaries : BT.709
Transfer characteristics : BT.709
Matrix coefficients : BT.709
Statistics Tags Issue : v13.0.0 ('The Juggler') 64bit 2018-08-10 00:49:21 / v6.1.0 ('Old Devil') built on Mar 4 2013 09:10:42 2018-08-12 06:52:35
FromStats_BitRate : 14168627
FromStats_Duration : 01:39:11.571000000
FromStats_FrameCount : 142695
FromStats_StreamSize : 10540698730

Audio #1
ID : 2
Format : AC-3
Format/Info : Audio Coding 3
Codec ID : A_AC3
Duration : 1 h 39 min
Bit rate mode : Constant
Bit rate : 192 kb/s
Channel(s) : 2 channels
Channel positions : Front: L R
Sampling rate : 48.0 kHz
Frame rate : 31.250 FPS (1536 SPF)
Bit depth : 16 bits
Compression mode : Lossy
Stream size : 136 MiB (1%)
Title : UKR (ICTV)
Language : Ukrainian
Service kind : Complete Main
Default : Yes
Forced : Yes

Audio #2
ID : 3
Format : E-AC-3
Format/Info : Enhanced Audio Coding 3
Codec ID : A_EAC3
Duration : 1 h 39 min
Bit rate mode : Constant
Bit rate : 640 kb/s
Channel(s) : 6 channels
Channel positions : Front: L C R, Side: L R, LFE
Sampling rate : 48.0 kHz
Frame rate : 187.500 FPS (256 SPF)
Compression mode : Lossy
Stream size : 454 MiB (4%)
Language : English
Service kind : Complete Main
Default : No
Forced : No
Statistics Tags Issue : v13.0.0 ('The Juggler') 64bit 2018-08-10 00:49:21 / v6.1.0 ('Old Devil') built on Mar 4 2013 09:10:42 2018-08-12 06:52:35
FromStats_BitRate : 640000
FromStats_Duration : 01:39:11.584000000
FromStats_FrameCount : 185987
FromStats_StreamSize : 476126720

Text #1
ID : 4
Format : UTF-8
Codec ID : S_TEXT/UTF8
Codec ID/Info : UTF-8 Plain Text
Language : English
Default : No
Forced : No
Statistics Tags Issue : v13.0.0 ('The Juggler') 64bit 2018-08-10 00:49:21 / v6.1.0 ('Old Devil') built on Mar 4 2013 09:10:42 2018-08-12 06:52:35
FromStats_BitRate : 53
FromStats_Duration : 01:35:25.152000000
FromStats_FrameCount : 1156
FromStats_StreamSize : 38176

Text #2
ID : 5
Format : UTF-8
Codec ID : S_TEXT/UTF8
Codec ID/Info : UTF-8 Plain Text
Title : SDH
Language : English
Default : No
Forced : No
Statistics Tags Issue : v13.0.0 ('The Juggler') 64bit 2018-08-10 00:49:21 / v6.1.0 ('Old Devil') built on Mar 4 2013 09:10:42 2018-08-12 06:52:35
FromStats_BitRate : 55
FromStats_Duration : 01:35:35.162000000
FromStats_FrameCount : 1257
FromStats_StreamSize : 39938
Скріншоти





За українську доріжку подяка п. Sando7 і patriot2305
Особиста подяка пану denixx за надану матеріальну допомогу на підтримку цього і майбутніх релізів.
Джерело:


 Трекер:    Зареєстрований   

Завантажити / скачати фільм українською



відео для новачків



 Зареєстрований:   2018-08-12 10:01
 Розмір:   10.39 GB 
 Оцінка фільму:   10/10 (Голосів: 2)
   
Інші релізи
   Реванш / The Take (2007) patriot2305  2 / 0   1.2 GB   2013-07-30 18:35 
Ваш часовий пояс: GMT + 2 Години

Нова тема   Відповісти