Особливо небезпечна / Barely Lethal (2015) Remux 1080p Ukr/Eng | Sub Eng

Нові коментарі

Нова тема   Відповісти
Останній раз роздавалося staf777 (2018-10-18)
Автор Повідомлення
staf777 
Попереджень: 1
Попереджень: 1 


З нами з: 16.11.16
Востаннє: 18.10.18
Повідомлень: 1637

2018-08-12 09:52  
Особливо небезпечна / Barely Lethal (2015) Remux 1080p Ukr/Eng | Sub Eng


Особливо небезпечна / Barely Lethal (2015) Remux 1080p Ukr/Eng | Sub Eng

«Звичайне життя спецагента»



Жанр: екшн, пригодницький, комедія
Країна: США



Кінокомпанія: RKO Pictures, Hopscotch Pictures, Main Street Films
Режисер: Кайл Ньюман / Kyle Newman
Актори: Хейлі Стейнфілд / Hailee Steinfeld, Семюель Л. Джексон / Samuel L. Jackson, Джессіка Альба / Jessica Alba, Софі Тернер / Sophie Turner, Джеймі Кінг / Jaime King, Дов Камерон / Dove Cameron, Томас Манн / Thomas Mann та інші

Сюжет:
16-річна Меґан не пам’ятає своїх батьків. З дитинства дівчина виховується разом з такими ж сиротами як і вона у спеціяльному закладі. Тут їх не навчають традиційним для всіх шкіл дисциплінам, основна увага приділяється бойовим мистецтвам і вмінню вбивати людину. Попри те, що Меґан одна з найкращих спецаґентів, вона мріє про життя звичайної школярки. Інсценувавши свою смерть, дівчина тікає та влаштовується у першу ліпшу школу. Яким же буде її здивування, коли з’ясується, що вижити серед звичайних підлітків часом набагато складніше, ніж виконувати секретні завдання.


Тривалість: 01:38:36
Якість: Remux 1080p

Відео:
кодек:
розмір кадру: 1920x1080
бітрейт: 25000 кб/с

Аудіо #1:
мова: українська
переклад: багатоголосий закадровий
кодек: HD MA 5.1
бітрейт: 3698 кб/с

Аудіо #2:
мова: українська
переклад: багатоголосий закадровий
кодек: 5.1
бітрейт: 640 кб/с

Аудіо # 3:
мова: англійська
переклад: оригінал
кодек: HD MA 5.1
бітрейт: 2048 кб/с

Субтитри:
мова: англійська
тип: пререндерні
формат: *.pgs
Info
Код:

General
Unique ID                   : 270709127405713700028500406111853476292 (0xCBA8AE74BFF1DEB72415806059E5F9C4)
Complete name               : K:\Barely Lethal (2015) Remux 1080p [Ukr,Eng sub.Eng] [Hurtom].
Format                      :
Format version              : Version 4 / Version 2
File size                   : 21.6 GiB
Duration                    : 1 h 38 min
Overall bit rate mode       : Variable
Overall bit rate            : 31.4 Mb/s
Movie name                  :  Barely Lethal (2015) Remux 1080p [Ukr,Eng sub.Eng] [Hurtom]
Encoded date                : UTC 2018-08-13 05:38:43
Writing application         : v24.0.0 ('Beyond The Pale') 64-bit
Writing library             : libebml v1.3.6 + v1.4.9
Cover                       : Yes
Attachments                 : cover.jpg

Video
ID                          : 1
Format                      : AVC
Format/Info                 : Advanced Video Codec
Format profile              : [email protected]
Format settings             : CABAC / 4 Ref Frames
Format settings, CABAC      : Yes
Format settings, ReFrames   : 4 frames
Codec ID                    : V_MPEG4/ISO/AVC
Duration                    : 1 h 38 min
Bit rate mode               : Variable
Bit rate                    : 25.0 Mb/s
Maximum bit rate            : 35.0 Mb/s
Width                       : 1 920 pixels
Height                      : 1 080 pixels
Display aspect ratio        : 16:9
Frame rate mode             : Constant
Frame rate                  : 23.976 (24000/1001) FPS
Standard                    : NTSC
Color space                 : YUV
Chroma subsampling          : 4:2:0
Bit depth                   : 8 bits
Scan type                   : Progressive
Bits/(Pixel*Frame)          : 0.503
Stream size                 : 17.2 GiB (80%)
Default                     : Yes
Forced                      : No
Color range                 : Limited
Color primaries             : BT.709
Transfer characteristics    : BT.709
Matrix coefficients         : BT.709

Audio #1
ID                          : 2
Format                      :
Format/Info                 : Digital Theater Systems
Format profile              : MA / Core
Codec ID                    : A_DTS
Duration                    : 1 h 38 min
Bit rate mode               : Variable / Constant
Bit rate                    : 3 698 kb/s / 1 509 kb/s
Channel(s)                  : 6 channels
Channel positions           : Front: L C R, Side: L R, LFE
Sampling rate               : 48.0 kHz
Frame rate                  : 93.750 FPS (512 SPF)
Bit depth                   : 24 bits
Compression mode            : Lossless / Lossy
Stream size                 : 2.55 GiB (12%)
Title                       : [ HD MA]
Language                    : Ukrainian
Default                     : Yes
Forced                      : Yes

Audio #2
ID                          : 3
Format                      : AC-3
Format/Info                 : Audio Coding 3
Codec ID                    : A_AC3
Duration                    : 1 h 38 min
Bit rate mode               : Constant
Bit rate                    : 640 kb/s
Channel(s)                  : 6 channels
Channel positions           : Front: L C R, Side: L R, LFE
Sampling rate               : 48.0 kHz
Frame rate                  : 31.250 FPS (1536 SPF)
Bit depth                   : 16 bits
Compression mode            : Lossy
Stream size                 : 451 MiB (2%)
Title                       : []
Language                    : Ukrainian
Service kind                : Complete Main
Default                     : No
Forced                      : No

Audio #3
ID                          : 4
Format                      :
Format/Info                 : Digital Theater Systems
Format profile              : MA / Core
Codec ID                    : A_DTS
Duration                    : 1 h 38 min
Bit rate mode               : Variable / Constant
Bit rate                    : 2 048 kb/s / 1 509 kb/s
Channel(s)                  : 6 channels
Channel positions           : Front: L C R, Side: L R, LFE
Sampling rate               : 48.0 kHz
Frame rate                  : 93.750 FPS (512 SPF)
Bit depth                   : 16 bits
Compression mode            : Lossless / Lossy
Stream size                 : 1.38 GiB (6%)
Language                    : English
Default                     : No
Forced                      : No

Text
ID                          : 5
Format                      : PGS
Muxing mode                 : zlib
Codec ID                    : S_HDMV/PGS
Codec ID/Info               : Picture based subtitle format used on BDs/HD-DVDs
Duration                    : 1 h 33 min
Bit rate                    : 42.6 kb/s
Count of elements           : 2480
Stream size                 : 28.4 MiB (0%)
Language                    : English
Default                     : No
Forced                      : No
Скріншоти






Подяка пану AngryBirdsUA за доріжку та пану Hanway за синхронізацію.
За допомогу в створені реліза дякую пану 11FrYkT
Джерело: &
Особиста оцінка: 0 - не дивився


Золотий реліз (завантажене не впливає на рейтинг)
 Трекер:    Зареєстрований   

Завантажити / скачати фільм українською



відео для новачків



 Зареєстрований:   2018-08-13 09:32
 Розмір:   21.61 GB 
 Оцінка фільму:   4.8/10 (Голосів: 4)
   
bot 
робот


З нами з: 30.09.07
Востаннє: 26.05.05
Повідомлень: 19962

2018-08-13 09:31  
Тему перенесено з Анонси релізів до форуму Фільми в HD


staf777

ngxwinger 
Новенький


З нами з: 19.01.14
Востаннє: 18.10.18
Повідомлень: 24

2018-08-16 21:29  
Від нічого робити завантажив для перегляду в дорозі, нічого не очікував, проте ледь пересилив себе добиватися до кінця. 3 з 10, Джессіка Альба грає так, що соромно на це дивитися, головна героїня не цікава, інтриги немає, гумору мало. За що взагалі тут 3 бали? 1 за С. Л. Джексона, 1 за малого ніндзю, 1 за те, що Альба все ще дуже мила.
Ваш часовий пояс: GMT + 2 Години

Нова тема   Відповісти