Нові пригоди Аладдіна (The New Adventures of Aladdin) / Les nouvelles aventures d'Aladin (2015) 1080p Ukr/Fre | Sub Eng

Нові коментарі

Нова тема   Відповісти
Автор Повідомлення
staf777 
Попереджень: 1
Попереджень: 1 


З нами з: 16.11.16
Востаннє: 18.12.18
Повідомлень: 1938

2018-08-12 08:47  
Нові пригоди Аладдіна / The New Adventures of Aladdin / Les nouvelles aventures d'Aladin (2015) 1080p Ukr/Fre | Sub Eng

Нові пригоди Аладдіна (The New Adventures of Aladdin) / Les nouvelles aventures d'Aladin (2015) 1080p Ukr/Fre | Sub Eng


Жанр: комедія
Країна: Франція



Кінокомпанія: 74 films, Artémis Productions, Canal+ [fr]
Режисер: Артур Бензакен
Актори: Кев Адамс, Жан-Поль Рув, Ванесса Ґвід, Вілльям Лебгіл, Рамзі Бедіа, Ерік Жюдор, Мішель Блан, Артур Бензакен...

Сюжет:
Думаєте, ви знаєте історію про Аладдіна? Як виявилось, у цій історії ще багато невідомих сторінок. Ми розповімо вам цю казку абсолютно по-новому. Запрошуємо вас у саме серце Багдада - міста тисячі скарбів! Там відбуваються справжні дива: літають килими-літаки, чаклуни пропонують зілля для омолодження, а в замку нудиться принцеса, яка іноді нишком вибирається в місто, де орудує спритний і заповзятливий злодюжка по імені Аладдін...


Тривалість: 01:45:44
Якість: 1080p
Відео:
кодек:
розмір кадру: 1920x808
бітрейт: 8984 кб/с

Аудіо # 1:
мова: українська
переклад: професійний дубльований
кодек: 5.1
бітрейт: 1509 кб/с

Аудіо # 2:
мова: українська
переклад: професійний дубльований
кодек: 5.1
бітрейт: 640 кб/с

Аудіо # 3:
мова: французька
переклад: оригінал
кодек: 5.1
бітрейт: 1509 кб/с

Субтитри:
мова: англійська
тип: програмні (м'які)
формат: *.srt
Info
General
Unique ID : 160193550619459466967550572825238995751 (0x788427D5A2C0ED85DDC42D01F4568327)
Complete name : S:\Фільми в HD\Комедія\Les nouvelles aventures d`Aladin (2015) 1080p [UA][FRA][Hurtom].
Format :
Format version : Version 4 / Version 2
File size : 9.33 GiB
Duration : 1 h 45 min
Overall bit rate : 12.6 Mb/s
Movie name : Les nouvelles aventures d`Aladin (2015) 1080p [UA][FRA][Hurtom]
Encoded date : UTC 2018-08-12 06:41:13
Writing application : v24.0.0 ('Beyond The Pale') 64-bit
Writing library : libebml v1.3.6 + v1.4.9
Cover : Yes
Attachments : cover

Video
ID : 1
Format : AVC
Format/Info : Advanced Video Codec
Format profile : [email protected]
Format settings : CABAC / 5 Ref Frames
Format settings, CABAC : Yes
Format settings, ReFrames : 5 frames
Codec ID : V_MPEG4/ISO/AVC
Duration : 1 h 45 min
Bit rate : 8 984 kb/s
Width : 1 920 pixels
Height : 808 pixels
Display aspect ratio : 2.40:1
Frame rate mode : Constant
Frame rate : 24.000 FPS
Color space : YUV
Chroma subsampling : 4:2:0
Bit depth : 8 bits
Scan type : Progressive
Bits/(Pixel*Frame) : 0.241
Stream size : 6.63 GiB (71%)
Title : Les nouvelles aventures.Aladin. 1080p
Writing library : core 148 r2665 a01e339
Encoding settings : cabac=1 / ref=5 / deblock=1:0:0 / analyse=0x3:0x113 / me=umh / subme=8 / psy=1 / psy_rd=1.00:0.00 / mixed_ref=1 / me_range=16 / chroma_me=1 / trellis=1 / 8x8dct=1 / cqm=0 / deadzone=21,11 / fast_pskip=1 / chroma_qp_offset=-2 / threads=12 / lookahead_threads=2 / sliced_threads=0 / nr=0 / decimate=1 / interlaced=0 / bluray_compat=0 / constrained_intra=0 / bframes=3 / b_pyramid=2 / b_adapt=2 / b_bias=0 / direct=3 / weightb=1 / open_gop=0 / weightp=2 / keyint=250 / keyint_min=24 / scenecut=40 / intra_refresh=0 / rc_lookahead=50 / rc=2pass / mbtree=1 / bitrate=8984 / ratetol=1.0 / qcomp=0.60 / qpmin=0 / qpmax=69 / qpstep=4 / cplxblur=20.0 / qblur=0.5 / ip_ratio=1.40 / aq=1:1.00
Language : French
Default : Yes
Forced : No

Audio #1
ID : 2
Format :
Format/Info : Digital Theater Systems
Codec ID : A_DTS
Duration : 1 h 45 min
Bit rate mode : Constant
Bit rate : 1 509 kb/s
Channel(s) : 6 channels
Channel positions : Front: L C R, Side: L R, LFE
Sampling rate : 48.0 kHz
Frame rate : 93.750 FPS (512 SPF)
Bit depth : 24 bits
Compression mode : Lossy
Stream size : 1.11 GiB (12%)
Title : [UA-]
Language : Ukrainian
Default : Yes
Forced : Yes

Audio #2
ID : 3
Format : AC-3
Format/Info : Audio Coding 3
Codec ID : A_AC3
Duration : 1 h 45 min
Bit rate mode : Constant
Bit rate : 640 kb/s
Channel(s) : 6 channels
Channel positions : Front: L C R, Side: L R, LFE
Sampling rate : 48.0 kHz
Frame rate : 31.250 FPS (1536 SPF)
Bit depth : 16 bits
Compression mode : Lossy
Stream size : 484 MiB (5%)
Title : [UA-]
Language : Ukrainian
Service kind : Complete Main
Default : No
Forced : No

Audio #3
ID : 4
Format :
Format/Info : Digital Theater Systems
Codec ID : A_DTS
Duration : 1 h 45 min
Bit rate mode : Constant
Bit rate : 1 509 kb/s
Channel(s) : 6 channels
Channel positions : Front: L C R, Side: L R, LFE
Sampling rate : 48.0 kHz
Frame rate : 93.750 FPS (512 SPF)
Bit depth : 24 bits
Compression mode : Lossy
Stream size : 1.11 GiB (12%)
Language : French
Default : No
Forced : No

Text
ID : 5
Format : UTF-8
Codec ID : S_TEXT/UTF8
Codec ID/Info : UTF-8 Plain Text
Duration : 1 h 40 min
Bit rate : 48 b/s
Count of elements : 1233
Stream size : 35.7 KiB (0%)
Language : English
Default : No
Forced : No

Menu
00:00:00.000 : en:00:00:00.000
00:07:02.542 : en:00:07:02.542
00:12:41.750 : en:00:12:41.750
00:21:19.292 : en:00:21:19.292
00:26:46.708 : en:00:26:46.708
00:36:44.000 : en:00:36:44.000
00:40:41.333 : en:00:40:41.333
00:45:36.667 : en:00:45:36.667
00:49:55.042 : en:00:49:55.042
00:55:58.750 : en:00:55:58.750
01:04:55.208 : en:01:04:55.208
01:07:54.458 : en:01:07:54.458
01:17:07.833 : en:01:17:07.833
01:22:01.625 : en:01:22:01.625
01:32:15.625 : en:01:32:15.625
01:41:03.125 : en:01:41:03.125
Скріншоти



Подяка пану AngryBirdsUA за доріжку та пану Hanway за синхронізацію.
За допомогу в створені реліза дякую пану 11FrYkT
Джерело: &
Особиста оцінка: 0 - не дивився


 Трекер:    Зареєстрований   

Завантажити / скачати фільм українською



відео для новачків



 Зареєстрований:   2018-08-12 09:07
 Розмір:   9.33 GB 
 Оцінка фільму:   6/10 (Голосів: 5)
   
Ваш часовий пояс: GMT + 2 Години

Нова тема   Відповісти