Бунраку / Bunraku (2010) 1080p Ukr/Eng | Sub Ukr/Eng

Нові коментарі

Нова тема   Відповісти
Автор Повідомлення
Anonymous 







2018-08-12 07:38  
Бунраку / Bunraku (2010) 1080p Ukr/Eng | Sub Ukr/Eng

Бунраку / Bunraku (2010) 1080p Ukr/Eng | Sub Ukr/Eng


Жанр: бойовик, фентезі, драма
Країна: США



Кінокомпанія: Snoot Entertainment, Picturesque Films, Ram Bergman Productions
Режисер: Гай Моше
Актори: Джош Гартнетт, Вуді Гаррельсон, Гакт, Кевін МакКідд, Рон Перлман, Демі Мур, Жорді Молья, Шун Сугата, Емілі Кайхо, Майк Петтон

Сюжет:
У далекому майбутньому, після того, як світ пережив ядерну катастрофу, людство вирішило відмовитися від застосування будь-якої зброї. Уцілілі люди відтепер можуть воювати лише ножами та кулаками, і влада в суспільстві перейшла до найбільш сильних та майстерних бійців. Таким, як Нікола "Лісоруб", банда якого тримає місто в страху, б'ючи і вбиваючи непокірних. Але одного разу в місті з'являються два таємничих мандрівника: безіменний ковбой, спраглий помсти, і японський самурай, що розшукує древній медальйон. Ця парочка, об'єднавши зусилля, збирається кинути виклик всемогутньому Ніколі...


Тривалість: 02:04:27
Якість: 1080p
Відео:
кодек:
розмір кадру: 1920х816
бітрейт: 8539 кб/с

Аудіо # 1:
мова: українська
переклад: багатоголосий закадровий
кодек: 2.0
бітрейт: 192 кб/с

Аудіо # 2:
мова: англійська
переклад: оригінал
кодек: 5.1
бітрейт: 1509 кб/с

Субтитри # 1:
мова: українська
тип: програмні (м'які)
формат: *.srt

Субтитри # 2-3:
мова: англійська (повні, SDH)
тип: програмні (м'які)
формат: *.srt
Info
General
Unique ID : 225965165724308130606387554054129575409 (0xA9FF4ED2E8379CEA8DE526003F9FE5F1)
Format :
Format version : Version 4 / Version 2
File size : 8.91 GiB
Duration : 2 h 5 min
Overall bit rate : 10.2 Mb/s
Encoded date : UTC 2018-08-12 05:28:47
Writing application : v6.1.0 ('Old Devil') built on Mar 4 2013 09:10:42
Writing library : libebml v1.3.0 + v1.4.0

Video
ID : 1
Format : AVC
Format/Info : Advanced Video Codec
Format profile : [email protected]
Format settings : CABAC / 5 Ref Frames
Format settings, CABAC : Yes
Format settings, ReFrames : 5 frames
Codec ID : V_MPEG4/ISO/AVC
Duration : 2 h 5 min
Bit rate : 8 539 kb/s
Width : 1 920 pixels
Height : 816 pixels
Display aspect ratio : 2.35:1
Frame rate mode : Constant
Frame rate : 23.976 (23976/1000) FPS
Color space : YUV
Chroma subsampling : 4:2:0
Bit depth : 8 bits
Scan type : Progressive
Bits/(Pixel*Frame) : 0.227
Stream size : 7.24 GiB (81%)
Writing library : core 118 r2085 8a62835
Encoding settings : cabac=1 / ref=5 / deblock=1:0:0 / analyse=0x3:0x133 / me=umh / subme=7 / psy=1 / psy_rd=1.00:0.00 / mixed_ref=1 / me_range=16 / chroma_me=1 / trellis=1 / 8x8dct=1 / cqm=0 / deadzone=21,11 / fast_pskip=0 / chroma_qp_offset=-2 / threads=12 / sliced_threads=0 / nr=0 / decimate=1 / interlaced=0 / bluray_compat=0 / constrained_intra=0 / bframes=3 / b_pyramid=2 / b_adapt=2 / b_bias=0 / direct=3 / weightb=1 / open_gop=0 / weightp=2 / keyint=250 / keyint_min=23 / scenecut=40 / intra_refresh=0 / rc_lookahead=50 / rc=2pass / mbtree=1 / bitrate=8539 / ratetol=1.0 / qcomp=0.60 / qpmin=0 / qpmax=69 / qpstep=4 / cplxblur=20.0 / qblur=0.5 / ip_ratio=1.40 / aq=1:1.00
Language : English
Default : Yes
Forced : No

Audio #1
ID : 2
Format : AC-3
Format/Info : Audio Coding 3
Codec ID : A_AC3
Duration : 2 h 5 min
Bit rate mode : Constant
Bit rate : 192 kb/s
Channel(s) : 2 channels
Channel positions : Front: L R
Sampling rate : 48.0 kHz
Frame rate : 31.250 FPS (1536 SPF)
Bit depth : 16 bits
Compression mode : Lossy
Delay relative to video : 974 ms
Stream size : 172 MiB (2%)
Title : UKR (НЛО-TV)
Language : Ukrainian
Service kind : Complete Main
Default : Yes
Forced : Yes

Audio #2
ID : 3
Format :
Format/Info : Digital Theater Systems
Codec ID : A_DTS
Duration : 2 h 5 min
Bit rate mode : Constant
Bit rate : 1 509 kb/s
Channel(s) : 6 channels
Channel positions : Front: L C R, Side: L R, LFE
Sampling rate : 48.0 kHz
Frame rate : 93.750 FPS (512 SPF)
Bit depth : 24 bits
Compression mode : Lossy
Stream size : 1.32 GiB (15%)
Title : ENG
Language : English
Default : No
Forced : No

Text #1
ID : 4
Format : UTF-8
Codec ID : S_TEXT/UTF8
Codec ID/Info : UTF-8 Plain Text
Title : UKR
Language : Ukrainian
Default : Yes
Forced : No

Text #2
ID : 5
Format : UTF-8
Codec ID : S_TEXT/UTF8
Codec ID/Info : UTF-8 Plain Text
Title : ENG
Language : English
Default : No
Forced : No

Text #3
ID : 6
Format : UTF-8
Codec ID : S_TEXT/UTF8
Codec ID/Info : UTF-8 Plain Text
Title : ENG SDH
Language : English
Default : No
Forced : No
Скріншоти







За українську доріжку дякую п.: РОМЕО, Arsenfpu
Особиста подяка пану denixx за надану матеріальну допомогу на підтримку цього і майбутніх релізів.
Джерело:


 Трекер:    Зареєстрований   

Завантажити / скачати фільм українською



відео для новачків



 Зареєстрований:   2018-08-12 07:38
 Розмір:   8.91 GB 
 Оцінка фільму:   9.1/10 (Голосів: 7)
   
Інші релізи
   Бунраку / Bunraku (2010) Ukr/Eng Arsenfpu  1 / 0   2.35 GB   2015-09-03 22:16 
igor911 
Відео Гуртом
Відео Гуртом


З нами з: 18.01.08
Востаннє: 12.12.18
Повідомлень: 11567

2018-08-12 08:38  
Шкода, що не було взято якісний ріп від HDClub'а замість цього сцен-ріпу.
Ваш часовий пояс: GMT + 2 Години

Нова тема   Відповісти