Нові пригоди Аладдіна (The New Adventures of Aladdin) / Les nouvelles aventures d'Aladin (2015) AVC Ukr/Fre | Sub Eng

Нові коментарі

Нова тема   Відповісти
Автор Повідомлення
staf777 
Попереджень: 1
Попереджень: 1 


З нами з: 16.11.16
Востаннє: 23.10.18
Повідомлень: 1653

2018-08-11 22:55  
Нові пригоди Аладдіна / The New Adventures of Aladdin / Les nouvelles aventures d'Aladin (2015) AVC Ukr/Fre | Sub Eng

Нові пригоди Аладдіна (The New Adventures of Aladdin) / Les nouvelles aventures d'Aladin (2015) AVC Ukr/Fre | Sub Eng


Жанр: комедія
Країна: Франція



Кінокомпанія: 74 films, Artémis Productions, Canal+ [fr]
Режисер: Артур Бензакен
Актори: Кев Адамс, Жан-Поль Рув, Ванесса Ґвід, Вілльям Лебгіл, Рамзі Бедіа, Ерік Жюдор, Мішель Блан, Артур Бензакен...

Сюжет:
Думаєте, ви знаєте історію про Аладдіна? Як виявилось, у цій історії ще багато невідомих сторінок. Ми розповімо вам цю казку абсолютно по-новому. Запрошуємо вас у саме серце Багдада - міста тисячі скарбів! Там відбуваються справжні дива: літають килими-літаки, чаклуни пропонують зілля для омолодження, а в замку нудиться принцеса, яка іноді нишком вибирається в місто, де орудує спритний і заповзятливий злодюжка по імені Аладдін...


Тривалість: 01:45:44
Якість: AVC
Відео:
кодек:
розмір кадру: 1024x428
бітрейт: 2000 кб/с

Аудіо # 1:
мова: українська
переклад: професійний дубльований
кодек: 5.1
бітрейт: 448 кб/с

Аудіо # 2:
мова: французька
переклад: оригінал
кодек: 5.1
бітрейт: 448 кб/с

Субтитри:
мова: англійська
тип: програмні (м'які)
формат: *.srt
Info
General
Unique ID : 196715594657428609445439154253984629841 (0x93FE0BA12928E53B0392FAC745CF0451)
Complete name : H:\ Les nouvelles aventures d`Aladin (2015) AVC [UA][FRA][Hurtom].
Format :
Format version : Version 4 / Version 2
File size : 2.08 GiB
Duration : 1 h 45 min
Overall bit rate : 2 817 kb/s
Movie name : Les nouvelles aventures d`Aladin (2015) AVC [UA][FRA][Hurtom]
Encoded date : UTC 2018-08-12 05:54:02
Writing application : v24.0.0 ('Beyond The Pale') 64-bit
Writing library : libebml v1.3.6 + v1.4.9
Cover : Yes
Attachments : cover

Video
ID : 1
Format : AVC
Format/Info : Advanced Video Codec
Format profile : [email protected]
Format settings : CABAC / 4 Ref Frames
Format settings, CABAC : Yes
Format settings, ReFrames : 4 frames
Codec ID : V_MPEG4/ISO/AVC
Duration : 1 h 45 min
Bit rate : 2 000 kb/s
Width : 1 024 pixels
Height : 428 pixels
Display aspect ratio : 2.40:1
Frame rate mode : Constant
Frame rate : 24.000 FPS
Color space : YUV
Chroma subsampling : 4:2:0
Bit depth : 8 bits
Scan type : Progressive
Bits/(Pixel*Frame) : 0.190
Stream size : 1.42 GiB (68%)
Writing library : core 142 r2479 dd79a61
Encoding settings : cabac=1 / ref=1 / deblock=1:0:0 / analyse=0x1:0x111 / me=hex / subme=2 / psy=1 / psy_rd=1.00:0.00 / mixed_ref=0 / me_range=16 / chroma_me=1 / trellis=0 / 8x8dct=0 / cqm=0 / deadzone=21,11 / fast_pskip=1 / chroma_qp_offset=0 / threads=6 / lookahead_threads=2 / sliced_threads=0 / nr=0 / decimate=1 / interlaced=0 / bluray_compat=0 / constrained_intra=0 / bframes=3 / b_pyramid=2 / b_adapt=1 / b_bias=0 / direct=1 / weightb=1 / open_gop=0 / weightp=1 / keyint=240 / keyint_min=24 / scenecut=40 / intra_refresh=0 / rc_lookahead=10 / rc=abr / mbtree=1 / bitrate=2000 / ratetol=1.0 / qcomp=0.60 / qpmin=0 / qpmax=69 / qpstep=4 / vbv_maxrate=20000 / vbv_bufsize=25000 / nal_hrd=none / filler=0 / ip_ratio=1.40 / aq=1:1.00
Default : Yes
Forced : No
Color range : Limited
Color primaries : BT.709
Transfer characteristics : BT.709
Matrix coefficients : BT.709

Audio #1
ID : 2
Format : AC-3
Format/Info : Audio Coding 3
Codec ID : A_AC3
Duration : 1 h 45 min
Bit rate mode : Constant
Bit rate : 448 kb/s
Channel(s) : 6 channels
Channel positions : Front: L C R, Side: L R, LFE
Sampling rate : 48.0 kHz
Frame rate : 31.250 FPS (1536 SPF)
Bit depth : 16 bits
Compression mode : Lossy
Delay relative to video : -83 ms
Stream size : 339 MiB (16%)
Language : Ukrainian
Service kind : Complete Main
Default : Yes
Forced : Yes

Audio #2
ID : 3
Format : AC-3
Format/Info : Audio Coding 3
Codec ID : A_AC3
Duration : 1 h 45 min
Bit rate mode : Constant
Bit rate : 448 kb/s
Channel(s) : 6 channels
Channel positions : Front: L C R, Side: L R, LFE
Sampling rate : 48.0 kHz
Frame rate : 31.250 FPS (1536 SPF)
Bit depth : 16 bits
Compression mode : Lossy
Delay relative to video : -83 ms
Stream size : 339 MiB (16%)
Title : 5.1 @ 448 kbps
Language : French
Service kind : Complete Main
Default : No
Forced : No

Text
ID : 4
Format : UTF-8
Codec ID : S_TEXT/UTF8
Codec ID/Info : UTF-8 Plain Text
Duration : 1 h 40 min
Bit rate : 48 b/s
Count of elements : 1233
Stream size : 35.7 KiB (0%)
Language : English
Default : No
Forced : No

Menu
00:00:00.000 : :00:00:00.000
00:07:02.666 : :00:07:02.542
00:12:41.916 : :00:12:41.750
00:21:19.499 : :00:21:19.292
00:26:46.791 : :00:26:46.708
00:36:44.208 : :00:36:44.000
00:40:41.499 : :00:40:41.333
00:45:36.875 : :00:45:36.667
00:49:55.125 : :00:49:55.042
00:55:58.958 : :00:55:58.750
01:04:55.417 : :01:04:55.208
01:07:54.625 : :01:07:54.458
01:17:08.041 : :01:17:07.833
01:22:01.833 : :01:22:01.625
01:32:15.791 : :01:32:15.625
01:41:03.208 : :01:41:03.125
Скріншоти





Подяка пану AngryBirdsUA за доріжку та пану Hanway за синхронізацію.
Джерело: &
Особиста оцінка: 0 - не дивився


 Трекер:    Зареєстрований   

Завантажити / скачати фільм українською



відео для новачків



 Зареєстрований:   2018-08-12 09:15
 Розмір:   2.08 GB 
 Оцінка фільму:   5.5/10 (Голосів: 15)
   
bot 
робот


З нами з: 30.09.07
Востаннє: 26.05.05
Повідомлень: 19987

2018-08-12 09:15  
Тему перенесено з Анонси релізів до форуму Фільми


staf777

Fonbaron 
Свій


З нами з: 09.12.12
Востаннє: 22.10.18
Повідомлень: 81

2018-08-13 22:54  
Дуже ржачне кіно) дякую
Oleksa9 
VIP


З нами з: 17.05.12
Востаннє: 23.10.18
Повідомлень: 311

2018-08-19 07:16  
Fonbaron
Так, для коней....

waldi-hurtom 
VIP


З нами з: 07.10.12
Востаннє: 22.10.18
Повідомлень: 815

2018-08-20 22:04  
Сміттячко. Щасливий той, хто не дивився. Якби дебіли сценаристи-режисери вміли читати, наприклад збірку 1001 ніч і зробили собі сепуку в дитинстві, то мільйони людей не змарнували дві години свого життя. Тьху! 1 з 10.
Ваш часовий пояс: GMT + 2 Години

Нова тема   Відповісти