Око / The Eye (2008) AVC Ukr/Eng | Sub Eng

Нові коментарі

Нова тема   Відповісти
Автор Повідомлення
staf777 
Попереджень: 1
Попереджень: 1 


З нами з: 16.11.16
Востаннє: 18.10.18
Повідомлень: 1637

2018-08-11 22:14  
Око / The Eye (2008) AVC Ukr/Eng | Sub Eng

Око / The Eye (2008) AVC Ukr/Eng | Sub Eng
Оригінальна обкладинка

Жанр: трилер, драма, жахи
Країна: США



Кінокомпанія: Lionsgate
Режисер: Хідео Наката, Ксав'єр Палю
Актори: Джесіка Альба, Александро Нівола, Паркер Поузі, Раде Шербеджия, Фернанда Ромеро, Оба Бабатунде, Дені Мора, Хлоя Морец, Брет Хаворт.

Сюжет:
Еллісон осліпла ще в дитинстві. Довгі роки в абсолютній темряві вона терпляче чекала тієї миті, коли за допомогою сучасної медицини знов зможе бачити. І ось, через двадцять років, настав довгоочікуваний момент - їй приживляють донорську рогівку.
Проте незабаром пересадженим їй донорським оком вона починає бачити в дзеркалі невиразні образи. У пошуках відповідей Еллісон намагається з'ясувати, що трапилося з попереднім власником ока.


Тривалість: 01:36:33
Якість: AVC [джерело: Remux 1080p]

Відео:
кодек:
розмір кадру: 1024x432
бітрейт: 2791 кб/с

Аудіо # 1:
мова: українська
переклад: багатоголосий закадровий
кодек: 2.0
бітрейт: 192 кб/с

Аудіо # 2:
мова: англійська
переклад: оригінал
кодек: 5.1
бітрейт: 384 кб/с

Субтитри:
мова: англійська
тип: програмні (м'які)
формат: *.srt
Info
General
Unique ID : 63988136068059546474549320405273819046 (0x3023AAAF12A7FABAE5D7AB9403A037A6)
Complete name : H:\The Eye (2008) AVC [Ukr,Eng sub.Eng][Hurtom].
Format :
Format version : Version 4 / Version 2
File size : 2.27 GiB
Duration : 1 h 36 min
Overall bit rate : 3 370 kb/s
Movie name : The Eye (2008) AVC [Ukr,Eng sub.Eng][Hurtom]
Encoded date : UTC 2018-08-11 18:49:59
Writing application : v24.0.0 ('Beyond The Pale') 64-bit
Writing library : libebml v1.3.6 + v1.4.9
Cover : Yes
Attachments : cover.png

Video
ID : 1
Format : AVC
Format/Info : Advanced Video Codec
Format profile : [email protected]
Format settings : CABAC / 5 Ref Frames
Format settings, CABAC : Yes
Format settings, ReFrames : 5 frames
Codec ID : V_MPEG4/ISO/AVC
Duration : 1 h 36 min
Bit rate : 2 791 kb/s
Width : 1 024 pixels
Height : 432 pixels
Display aspect ratio : 2.40:1
Frame rate mode : Constant
Frame rate : 23.976 (24000/1001) FPS
Color space : YUV
Chroma subsampling : 4:2:0
Bit depth : 8 bits
Scan type : Progressive
Bits/(Pixel*Frame) : 0.263
Stream size : 1.88 GiB (83%)
Writing library : core 112 r1867 22bfd31
Encoding settings : cabac=1 / ref=5 / deblock=1:-3:-3 / analyse=0x3:0x133 / me=umh / subme=9 / psy=1 / psy_rd=1.00:0.20 / mixed_ref=1 / me_range=24 / chroma_me=1 / trellis=2 / 8x8dct=1 / cqm=0 / deadzone=21,11 / fast_pskip=1 / chroma_qp_offset=-3 / threads=6 / sliced_threads=0 / nr=0 / decimate=1 / interlaced=0 / constrained_intra=0 / bframes=3 / b_pyramid=2 / b_adapt=2 / b_bias=0 / direct=3 / weightb=1 / open_gop=0 / weightp=2 / keyint=250 / keyint_min=23 / scenecut=40 / intra_refresh=0 / rc=2pass / mbtree=0 / bitrate=2791 / ratetol=0.1 / qcomp=1.00 / qpmin=0 / qpmax=51 / qpstep=4 / cplxblur=20.0 / qblur=0.5 / ip_ratio=1.40 / pb_ratio=1.30 / aq=1:1.00
Language : English
Default : Yes
Forced : No
Color range : Full
Color primaries : Generic film

Audio #1
ID : 2
Format : AC-3
Format/Info : Audio Coding 3
Codec ID : A_AC3
Duration : 1 h 36 min
Bit rate mode : Constant
Bit rate : 192 kb/s
Channel(s) : 2 channels
Channel positions : Front: L R
Sampling rate : 44.1 kHz
Frame rate : 28.711 FPS (1536 SPF)
Bit depth : 16 bits
Compression mode : Lossy
Stream size : 133 MiB (6%)
Title : DVO (Ukrainian) Новий Канал
Language : Ukrainian
Service kind : Complete Main
Default : Yes
Forced : Yes

Audio #2
ID : 3
Format : AC-3
Format/Info : Audio Coding 3
Codec ID : A_AC3
Duration : 1 h 36 min
Bit rate mode : Constant
Bit rate : 384 kb/s
Channel(s) : 6 channels
Channel positions : Front: L C R, Side: L R, LFE
Sampling rate : 48.0 kHz
Frame rate : 31.250 FPS (1536 SPF)
Bit depth : 16 bits
Compression mode : Lossy
Stream size : 265 MiB (11%)
Title : Original (English)
Language : English
Service kind : Complete Main
Default : No
Forced : No

Text
ID : 4
Format : UTF-8
Codec ID : S_TEXT/UTF8
Codec ID/Info : UTF-8 Plain Text
Duration : 1 h 27 min
Bit rate : 34 b/s
Count of elements : 766
Stream size : 22.3 KiB (0%)
Title : Eng
Language : English
Default : No
Forced : No
Скріншоти



Джерело: &
Постер - п.gnick1.
Особиста оцінка: 0 - не дивився


 Трекер:    Зареєстрований   

Завантажити / скачати фільм українською



відео для новачків



 Зареєстрований:   2018-08-12 17:51
 Розмір:   2.27 GB 
 Оцінка фільму:   9.3/10 (Голосів: 18)
   
Інші релізи
   Око / The Eye (2008) Remux 1080p Ukr/Eng | Sub Eng staf777  1 / 0   15.35 GB   2018-08-13 09:11 
   Око / The Eye (2008) 720p Ukr/Eng | Sub Eng staf777  0 / 0   5.39 GB   2017-02-16 20:12 
   Око / The Eye (2008) 1080p Ukr/Eng | Sub Eng famous37  0 / 0   7.76 GB   2016-02-14 19:50 
   Око / The eye (2008) Breniak  3 / 0   1.33 GB   2011-01-28 15:56 
bot 
робот


З нами з: 30.09.07
Востаннє: 26.05.05
Повідомлень: 19962

2018-08-12 17:51  
Тему перенесено з Анонси релізів до форуму Фільми


staf777

ssTAss 
Модератор музики


З нами з: 05.07.08
Востаннє: 19.10.18
Повідомлень: 14072

2018-08-12 21:20  
igor911 
Відео Гуртом
Відео Гуртом


З нами з: 18.01.08
Востаннє: 19.10.18
Повідомлень: 11249

2018-08-13 02:14  
ssTAss написано:
https://www.imdb.com/title/tt0406759/

додав

вальдемар 
Свій


З нами з: 06.01.11
Востаннє: 26.09.18
Повідомлень: 146

2018-08-16 20:10  
Ну чому такий низький імпортний рейтинг? Фільм вартує більшого. Хороша містика, трилер.
SoulBurn 
Новенький


З нами з: 08.06.10
Востаннє: 18.10.18
Повідомлень: 15

2018-08-24 17:55  
вальдемар написано:
Ну чому такий низький імпортний рейтинг? Фільм вартує більшого. Хороша містика, трилер.

Якщо говорити про оригінал братів Пенг (见鬼 Gin gwai 2002), то я з Вами згідний. Чудова містика-трилер, що твердо посіла місце поруч із Кільцем (リング Ringu 1998) і Прокляттям (呪怨じゅおん Juon 2002). Американський ремейк знову зпоганили толерантністю, масовістю і хепіендом.

З.І. 2га частина, як на мене, навіть цікавіша.

Ваш часовий пояс: GMT + 2 Години

Нова тема   Відповісти