Викуп (Метелик на колесі) / Butterfly on a Wheel (2007) 1080p 4xUkr/Eng | Sub Eng

Нові коментарі

Нова тема   Відповісти
Автор Повідомлення
Anonymous 







2018-08-11 20:44  
Викуп (Метелик на колесі) / Butterfly on a Wheel (2007) 1080p 4xUkr/Eng | Sub Eng

Викуп (Метелик на колесі) / Butterfly on a Wheel (2007) 1080p 4xUkr/Eng | Sub Eng


Жанр: кримінал, драма, трилер
Країна: Велика Британія, Канада, США



Кінокомпанія: Butterfly Productions, Canadian Film or Video Production Tax Credit
Режисер: Майк Баркер
Актори: Пірс Броснан, Марія Белло, Джерард Батлер, Емма Карванді, Клодетт Мінк, Дезире Зуровські, Ніколас Ліа, Пітер Келеган

Сюжет:
Ніл та Еббі Ворнери живуть ідеальним подружнім життям. Разом з дочкою Софі вони є живим втіленням «американської мрії», але... мрії закінчуються. Раптово Софі викрадають, і батькам не лишається нічого, окрім як погодитися на умови викрадача. В одну мить їх життя опиняється в руках викрадача - Раяна - соціопата, якому, схоже, нічого втрачати. Вони виконують всі забаганки Раяна, поки не стає зрозумілим те, що цій людині потрібні зовсім не їх гроші...


Тривалість: 01:34:57
Якість: 1080p
Відео:
кодек:
розмір кадру: 1920х800
бітрейт: 10.4 Мб/с

Аудіо # 1:
мова: українська
переклад: багатоголосий закадровий
кодек: 2.0
бітрейт: 192 кб/с

Аудіо # 2:
мова: українська
переклад: багатоголосий закадровий
кодек: 2.0
бітрейт: 192 кб/с

Аудіо # 3:
мова: українська
переклад: багатоголосий закадровий
кодек: 2.0
бітрейт: 192 кб/с

Аудіо # 4:
мова: українська
переклад: двоголосий закадровий
кодек: 2.0
бітрейт: 192 кб/с

Аудіо # 5:
мова: англійська
переклад: оригінал
кодек: 5.1
бітрейт: 640 кб/с

Субтитри:
мова: англійська
тип: програмні (м'які)
формат: *.srt
Info
General
Unique ID : 245270688348051152941007272405999610097 (0xB8856A93C033B33F8A06609BE4D8E8F1)
Format :
Format version : Version 4 / Version 2
File size : 7.84 GiB
Duration : 1 h 34 min
Overall bit rate : 11.8 Mb/s
Encoded date : UTC 2018-08-11 18:33:00
Writing application : v6.1.0 ('Old Devil') built on Mar 4 2013 09:10:42
Writing library : libebml v1.3.0 + v1.4.0

Video
ID : 1
Format : AVC
Format/Info : Advanced Video Codec
Format profile : [email protected]
Format settings : CABAC / 5 Ref Frames
Format settings, CABAC : Yes
Format settings, ReFrames : 5 frames
Codec ID : V_MPEG4/ISO/AVC
Duration : 1 h 34 min
Bit rate : 10.4 Mb/s
Width : 1 920 pixels
Height : 800 pixels
Display aspect ratio : 2.40:1
Frame rate mode : Constant
Frame rate : 23.976 (24000/1001) FPS
Color space : YUV
Chroma subsampling : 4:2:0
Bit depth : 8 bits
Scan type : Progressive
Bits/(Pixel*Frame) : 0.283
Stream size : 6.75 GiB (86%)
Writing library : core 138 r2358 9e941d1
Encoding settings : cabac=1 / ref=5 / deblock=1:-3:-3 / analyse=0x3:0x133 / me=umh / subme=11 / psy=1 / psy_rd=1.00:0.10 / mixed_ref=1 / me_range=32 / chroma_me=1 / trellis=2 / 8x8dct=1 / cqm=0 / deadzone=21,11 / fast_pskip=0 / chroma_qp_offset=-3 / threads=6 / lookahead_threads=1 / sliced_threads=0 / nr=0 / decimate=1 / interlaced=0 / bluray_compat=0 / constrained_intra=0 / bframes=6 / b_pyramid=2 / b_adapt=2 / b_bias=0 / direct=3 / weightb=1 / open_gop=0 / weightp=2 / keyint=240 / keyint_min=23 / scenecut=40 / intra_refresh=0 / rc=2pass / mbtree=0 / bitrate=10410 / ratetol=1.0 / qcomp=0.60 / qpmin=0 / qpmax=69 / qpstep=4 / cplxblur=20.0 / qblur=0.5 / ip_ratio=1.40 / pb_ratio=1.30 / aq=2:0.90
Language : English
Default : Yes
Forced : No

Audio #1
ID : 2
Format : AC-3
Format/Info : Audio Coding 3
Codec ID : A_AC3
Duration : 1 h 34 min
Bit rate mode : Constant
Bit rate : 192 kb/s
Channel(s) : 2 channels
Channel positions : Front: L R
Sampling rate : 48.0 kHz
Frame rate : 31.250 FPS (1536 SPF)
Bit depth : 16 bits
Compression mode : Lossy
Stream size : 130 MiB (2%)
Title : UKR (1+1)
Language : Ukrainian
Service kind : Complete Main
Default : Yes
Forced : Yes

Audio #2
ID : 3
Format : AC-3
Format/Info : Audio Coding 3
Codec ID : A_AC3
Duration : 1 h 34 min
Bit rate mode : Constant
Bit rate : 192 kb/s
Channel(s) : 2 channels
Channel positions : Front: L R
Sampling rate : 48.0 kHz
Frame rate : 31.250 FPS (1536 SPF)
Bit depth : 16 bits
Compression mode : Lossy
Stream size : 130 MiB (2%)
Title : UKR (ICTV)
Language : Ukrainian
Service kind : Complete Main
Default : No
Forced : No

Audio #3
ID : 4
Format : AC-3
Format/Info : Audio Coding 3
Codec ID : A_AC3
Duration : 1 h 34 min
Bit rate mode : Constant
Bit rate : 192 kb/s
Channel(s) : 2 channels
Channel positions : Front: L R
Sampling rate : 44.1 kHz
Frame rate : 28.711 FPS (1536 SPF)
Bit depth : 16 bits
Compression mode : Lossy
Stream size : 130 MiB (2%)
Title : UKR (ТВі)
Language : Ukrainian
Service kind : Complete Main
Default : No
Forced : No

Audio #4
ID : 5
Format : AC-3
Format/Info : Audio Coding 3
Codec ID : A_AC3
Duration : 1 h 34 min
Bit rate mode : Constant
Bit rate : 192 kb/s
Channel(s) : 2 channels
Channel positions : Front: L R
Sampling rate : 48.0 kHz
Frame rate : 31.250 FPS (1536 SPF)
Bit depth : 16 bits
Compression mode : Lossy
Stream size : 130 MiB (2%)
Title : UKR (НТН)
Language : Ukrainian
Service kind : Complete Main
Default : No
Forced : No

Audio #5
ID : 6
Format : AC-3
Format/Info : Audio Coding 3
Codec ID : A_AC3
Duration : 1 h 34 min
Bit rate mode : Constant
Bit rate : 640 kb/s
Channel(s) : 6 channels
Channel positions : Front: L C R, Side: L R, LFE
Sampling rate : 48.0 kHz
Frame rate : 31.250 FPS (1536 SPF)
Bit depth : 16 bits
Compression mode : Lossy
Stream size : 435 MiB (5%)
Title : English
Language : English
Service kind : Complete Main
Default : No
Forced : No

Text
ID : 7
Format : UTF-8
Codec ID : S_TEXT/UTF8
Codec ID/Info : UTF-8 Plain Text
Title : English
Language : English
Default : No
Forced : No

Menu
00:00:00.000 : en:Chapter 1
00:10:19.791 : en:Chapter 2
00:16:26.333 : en:Chapter 3
00:24:00.250 : en:Chapter 4
00:29:46.583 : en:Chapter 5
00:36:57.958 : en:Chapter 6
00:44:16.041 : en:Chapter 7
00:51:54.958 : en:Chapter 8
01:04:00.375 : en:Chapter 9
01:14:57.958 : en:Chapter 10
01:21:52.000 : en:Chapter 11
01:29:05.625 : en:Chapter 12
Скріншоти






За українські доріжки подяка п.: slavik_v_z, igrik09, Breniak, rooster, xslim, drakon87, Arsenfpu
Особиста подяка пану denixx за надану матеріальну допомогу на підтримку цього і майбутніх релізів.
Джерело:


 Трекер:    Зареєстрований   

Завантажити / скачати фільм українською



відео для новачків



 Зареєстрований:   2018-08-11 20:44
 Розмір:   7.84 GB 
 Оцінка фільму:   10/10 (Голосів: 4)
   
Robar III 
Попереджень: 2
Попереджень: 2 


З нами з: 18.08.11
Востаннє: 13.12.18
Повідомлень: 3312

2018-08-11 21:28  
Як фільм?
pavivo 
Новенький


З нами з: 08.11.09
Востаннє: 13.12.18
Повідомлень: 6

2018-08-15 10:26  
Фільм бомбезний. Рекомендую
Ваш часовий пояс: GMT + 2 Години

Нова тема   Відповісти