Супер поліцейські 2 / Super Troopers 2 (2018) Ukr/Eng | Sub Ukr/Eng

Нові коментарі

Нова тема   Відповісти
Автор Повідомлення
Anonymous 







2018-08-11 15:46  
Супер поліцейські 2 / Super Troopers 2 (2018) Ukr/Eng | Sub Ukr/Eng



Жанр: детектив, комедія, кримінальний
Країна: США



Кінокомпанія: Votiv Films, Broken Lizard Industries, Cataland Films
Режисер: Джей Чандрашекхар
Актори: Еммануель Шрікі, Роб Лоу, Лінда Картер, Брайан Кокс, Джей Чандрашекхар, Тайлер Лабін, Пол Уолтер Хаузер, Стів Лемм, Маріса Кохлан, Кевін Хеффернан

Сюжет:
Коли на кордоні між США та Канадою виникає напружена ситуація, загону суперполіцейських доручають встановити станцію дорожнього патрулювання в цій суперечливій зоні.


Рейтинг MPAA: R - особам до 17 років обов'язкова присутність батьків або дорослого опікуна
Вікова категорія: 16+

Тривалість: 01:39:31
Якість:

Відео:
кодек:
розмір кадру: 720 х 384
бітрейт: 1706 кб/с

Аудіо # 1:
мова: українська
переклад: професійний дубльований
кодек: 2.0
бітрейт: 192 кб/с

Аудіо # 2:
мова: англійська
переклад: оригінал
кодек: 2.0
бітрейт: 192 кб/с

Субтитри # 1-2:
мова: українська (форсовані, повні)
тип: програмні (м'які)
формат: *.srt

Субтитри # 3-4:
мова: англійська (повні, SDH)
тип: програмні (м'які)
формат: *.srt
Info
Код:
General
Complete name               : Super Troopers 2 (2018) [Ukr,Eng] [Hurtom].avi
Format                      : AVI
Format/Info                 : Audio Video Interleave
File size                   : 1.46 GiB
Duration                    : 1 h 39 min
Overall bit rate            : 2 105 kb/s
Movie name                  : Супер поліцейські 2 / Super Troopers 2 (2018) [Ukr,Eng] [Hurtom]
Genre                       : детектив, комедія, кримінальний
Recorded date               : 11.08.2018
Writing application         : VirtualDubModUkr 1.5.10.2 (build 2542/release)
Writing library             : VirtualDubMod build 2542/release
Comment                     : https://toloka.to/t94169

Video
ID                          : 0
Format                      : MPEG-4 Visual
Format profile              : Advanced [email protected]
Format settings             : BVOP1 / Custom Matrix
Format settings, BVOP       : 1
Format settings, QPel       : No
Format settings, GMC        : No warppoints
Format settings, Matrix     : Custom
Codec ID                    :
Codec ID/Hint               :
Duration                    : 1 h 39 min
Bit rate                    : 1 707 kb/s
Width                       : 720 pixels
Height                      : 384 pixels
Display aspect ratio        : 1.85:1
Frame rate                  : 23.976 (24000/1001) FPS
Color space                 : YUV
Chroma subsampling          : 4:2:0
Bit depth                   : 8 bits
Scan type                   : Progressive
Compression mode            : Lossy
Bits/(Pixel*Frame)          : 0.257
Stream size                 : 1.19 GiB (81%)
Writing library             : 73

Audio #1
ID                          : 1
Format                      : AC-3
Format/Info                 : Audio Coding 3
Codec ID                    : 2000
Duration                    : 1 h 39 min
Bit rate mode               : Constant
Bit rate                    : 192 kb/s
Channel(s)                  : 2 channels
Channel positions           : Front: L R
Sampling rate               : 48.0 kHz
Frame rate                  : 31.250 FPS (1536 SPF)
Bit depth                   : 16 bits
Compression mode            : Lossy
Stream size                 : 137 MiB (9%)
Alignment                   : Split accross interleaves
Interleave, duration        : 42  ms (1.00 video frame)
Interleave, preload duratio : 500  ms
Title                       : UKR DUB [іТunes]
Service kind                : Complete Main

Audio #2
ID                          : 2
Format                      : AC-3
Format/Info                 : Audio Coding 3
Codec ID                    : 2000
Duration                    : 1 h 39 min
Bit rate mode               : Constant
Bit rate                    : 192 kb/s
Channel(s)                  : 2 channels
Channel positions           : Front: L R
Sampling rate               : 48.0 kHz
Frame rate                  : 31.250 FPS (1536 SPF)
Bit depth                   : 16 bits
Compression mode            : Lossy
Stream size                 : 137 MiB (9%)
Alignment                   : Split accross interleaves
Interleave, duration        : 42  ms (1.00 video frame)
Interleave, preload duratio : 500  ms
Title                       : ENG, original
Service kind                : Complete Main




Джерело: &
Українська доріжка - AngryBirdsUA.


 Трекер:    Зареєстрований   

Завантажити / скачати фільм українською



відео для новачків



 Зареєстрований:   2018-08-11 16:33
 Розмір:   1.46 GB 
 Оцінка фільму:   8.3/10 (Голосів: 28)
   
nelsonvan 
Частий відвідувач


З нами з: 07.01.16
Востаннє: 20.11.19
Повідомлень: 35

2018-08-11 22:37  
Переглянув хвилин 10-15, видалив.
Щось зовсім нецікаво, якийсь пафос, приколи про ввічливих канадців, усі жахливо натягнуто грають...
Це лише мені так здалося?

wlodko 
Новенький


З нами з: 29.11.07
Востаннє: 13.11.19
Повідомлень: 21

2018-08-12 00:26  
nelsonvan
+1. якесь л**но

qarty1 
VIP


З нами з: 01.11.09
Востаннє: 22.11.19
Повідомлень: 282

2018-08-25 10:48  
жахіття, фільм лайно повне, жарти для діток трьох років. 2\10
ProgBassing 
Попереджень: 1
Попереджень: 1 


З нами з: 08.03.08
Востаннє: 21.11.19
Повідомлень: 874

2018-08-25 12:42  
!!УВАГА-УВАГА!!

хто каже, що це кіно тупе, той засвідчує свою власну безпросвіту тупість, бо:

- сюжет, сценарій, діалоги та динаміка фільму перфектно промірковані (непомітили? ото ж!)
- присутньо чимало тонких жартів, частину яких ви "тупаки" не догнали, а решту вбив посередній дубляж
- кіно РОЗДОВБАЙСЬКЕ, хто цього не розуміє, той тричі зашторений

...зважайте на жанр!

Ваш часовий пояс: GMT + 2 Години

Нова тема   Відповісти