Мамця (Сезони 1-2) / Mom (Seasons 1-2) (2013-2015) 720p Ukr/Eng | Sub Eng

Нові коментарі

Нова тема   Відповісти
Останній раз роздавалося greenst (2020-11-27)
Автор Повідомлення
Anonymous 







2018-08-11 11:18  
Мамця (Сезони 1-2) / Mom (Seasons 1-2) (2013-2015) 720p Ukr/Eng | Sub Eng

Мамця (Сезони 1-2) / Mom (Seasons 1-2) (2013-2015) 720p Ukr/Eng | Sub Eng


Жанр: комедія, драма, романтичний
Країна: США



Кінокомпанія: Chuck Lorre Productions, Warner Bros. Television
Режисер: Джемма Бейкер (Gemma Baker), Едді Ґородецький (Eddie Gorodetsky), Чак Лоррі (Chuck Lorre)
Актори: Анна Фаріс (Anna Faris), Еллісон Дженні (Allison Janney), Джеймі Преслі (Jaime Pressly), Саді Кальвано (Sadie Calvano), Мімі Кенеді (Mimi Kennedy) та інші

Сюжет:
Крісті - мати-одиначка, яка виховує двох дітей і намагається побороти алкогольну залежність. Щоб прогодувати свою сім'ю, вона влаштувалася офіціанткою в місцевий ресторан, де у неї зав'язалися стосунки з начальником Габріелем. Постійний тиск на неї чинить власна мати, яка також є колишньою алкоголічкою. Крісті постійно стикається з проблемами в житті: старша дочка почала жити дорослим життям, колишній чоловік постійно намагається підставити її, новий коханець виявився одруженим. Крісті намагається у всьому поганому знайти щось хороше, що допомагає їй стати сильною людиною, яка готова пройти будь-які випробування, що виникають на її шляху


Тривалість: 1 серія: ~20 хв. (цілком серій: 44)
Перелік серій
Сезон 1
01) Pilot
02) A Pee Stick and an Asian Raccoon
03) A Small Nervous Breakdown and a Misplaced Fork
04) Loathing and Tube Socks
05) Six Thousand Bootleg T-Shirts and a Prada Handbag
06) Abstinence and Pudding
07) Estrogen and a Hearty Breakfast
08) Big Sur and Strawberry Lube
09) Zombies and Cobb Salad
10) Belgian Waffles and Bathroom Privileges
11) Cotton Candy and Blended Fish
12) Corned Beef and Handcuffs
13) Hot Soup and Shingles
14) Leather Cribs and Medieval Rack
15) Fireballs and Bullet Holes
16) Nietzsche and a Beer Run
17) Jail Jail and Japanese Porn
18) Sonograms and Tube Tops
19) Toilet Wine and the Earl of Sandwich
20) Clumsy Monkeys and a Tilted Uterus
21) Broken Dreams and Blocked Arteries
22) Smokey Taylor and a Deathbed Confession
Сезон 2
01) Hepatitis and Lemon Zest
02) Figgy Pudding and the Rapture
03) Chicken Nuggets and a Triple Homicide
04) Forged Resumes and the Recommended Dosage
05) Kimchi and a Monkey Playing Harmonica
06) Crazy Eyes and a Wet Brad Pitt
07) Soapy Eyes and a Clean Slate
08) Free Therapy and a Dead Lady's Yard Sale
09)Godzilla and a Sprig of Mint
10) Nudes and a Six-Day Cleanse
11) Three Smiles and an Unpainted Ceiling
12) Kitty Litter and a Class A Felony
13) Cheeseburger Salad and Jazz
14) Benito Poppins and a Warm Pumpkin
15) Turkey Meatballs and a Getaway Car
16) Dirty Money and a Woman Named Mike
17) A Commemorative Coin and a Misshapen Head
18) Dropped Soap and a Big Guy on a Throne
19) Mashed Potatoes and a Little Nitrous
20) Sick Popes and a Red Ferrari
21) Patient Zero and the Chocolate Fountain
22) Fun Girl Stuff and Eternal Salvation
Якість: [iTunes]
Відео:
кодек:
розмір кадру: 1280 х 720
бітрейт: ~4200 кб/с

Аудіо # 1:
мова: українська
переклад: багатоголосий закадровий | Paramount Comedy
кодек: 2.0
бітрейт: 192 кб/с

Аудіо # 2:
мова: англійська
переклад: оригінал
кодек: 5.1
бітрейт: 448 кб/с

Субтитри:
мова: англійська
тип: програмні (м'які)
формат: *.srt
Info
General
Unique ID : 189220665524935131037757843463340881937 (0x8E5A9317E15F685B6C04604FA01CF811)
Complete name : E:\Support\Mom (Season 1) [, 720p, Ukr, Eng]\Mom. s01e01. Pilot.
Format :
Format version : Version 4 / Version 2
File size : 757 MiB
Duration : 21 min 48 s
Overall bit rate : 4 852 kb/s
Encoded date : UTC 2018-08-10 19:02:08
Writing application : v25.0.0 ('Prog Noir') 64-bit
Writing library : libebml v1.3.6 + v1.4.9

Video
ID : 1
Format : AVC
Format/Info : Advanced Video Codec
Format profile : [email protected]
Format settings : 2 Ref Frames
Format settings, CABAC : No
Format settings, ReFrames : 2 frames
Codec ID : V_MPEG4/ISO/AVC
Duration : 21 min 48 s
Bit rate : 4 209 kb/s
Width : 1 280 pixels
Height : 720 pixels
Display aspect ratio : 16:9
Frame rate mode : Constant
Frame rate : 25.000 FPS
Color space : YUV
Chroma subsampling : 4:2:0
Bit depth : 8 bits
Scan type : Progressive
Bits/(Pixel*Frame) : 0.183
Stream size : 656 MiB (87%)
Default : Yes
Forced : No
Color range : Limited
Color primaries : BT.709
Transfer characteristics : BT.709
Matrix coefficients : BT.709

Audio #1
ID : 2
Format : AC-3
Format/Info : Audio Coding 3
Codec ID : A_AC3
Duration : 21 min 48 s
Bit rate mode : Constant
Bit rate : 192 kb/s
Channel(s) : 2 channels
Channel positions : Front: L R
Sampling rate : 48.0 kHz
Frame rate : 31.250 FPS (1536 SPF)
Bit depth : 16 bits
Compression mode : Lossy
Stream size : 29.9 MiB (4%)
Title : Paramount Comedy
Language : Ukrainian
Service kind : Complete Main
Default : Yes
Forced : No

Audio #2
ID : 3
Format : AC-3
Format/Info : Audio Coding 3
Codec ID : A_AC3
Duration : 21 min 48 s
Bit rate mode : Constant
Bit rate : 448 kb/s
Channel(s) : 6 channels
Channel positions : Front: L C R, Side: L R, LFE
Sampling rate : 48.0 kHz
Frame rate : 31.250 FPS (1536 SPF)
Bit depth : 16 bits
Compression mode : Lossy
Stream size : 69.9 MiB (9%)
Language : English
Service kind : Complete Main
Default : No
Forced : No

Text
ID : 4
Format : UTF-8
Codec ID : S_TEXT/UTF8
Codec ID/Info : UTF-8 Plain Text
Duration : 21 min 18 s
Bit rate : 114 b/s
Count of elements : 534
Stream size : 17.9 KiB (0%)
Language : English
Default : No
Forced : No
Скріншоти

Українську доріжку взято з роздачі https://toloka.to/t93996

Джерело: &
Особиста оцінка: 0 - не дивився


Бронзовий реліз (на рейтинг впливає 75% завантаженого)
 Трекер:    Зареєстрований   

Завантажити / скачати серіал українською



відео для новачків



 Зареєстрований:   2018-10-05 19:22
 Розмір:   29.58 GB 
 Оцінка серіалу:   9.4/10 (Голосів: 9)
   
Anonymous 







2018-10-05 19:24  
Додав другий сезон.

Увага, структуру роздачі було змінено.

alex_ter_ua 
Новенький


З нами з: 08.10.14
Востаннє: 29.10.20
Повідомлень: 8

2018-10-29 12:33  
Дякую. Вже з нетерпінням чекаємо 3-ій сезон. Парамоут Комеді вже "крутить".
Roger25 
Свій


З нами з: 18.02.15
Востаннє: 28.11.20
Повідомлень: 89

2018-12-12 03:31  
Крутезний серіал, дуже смішний)
0mage0 
VIP


З нами з: 06.10.15
Востаннє: 28.11.20
Повідомлень: 709

2018-12-16 08:03  
Дуже смішний серіал. Дивно, як можна до такої сумної теми, як алкоголізм, підходити з гумором. Хоча, звісно, це коли вони вже контролюють себе, можуть жартувати на тему минулого. Мабуть, під час згадуваних подій з минулого життя героїв, було геть не весело Happy
Дивимось третій сезон https://toloka.to/t96326

Ваш часовий пояс: GMT + 2 Години

Нова тема   Відповісти