Шерлок Гномс / Sherlock Gnomes (2018) Ukr/Eng | Sub Ukr/Eng

Нові коментарі

Нова тема   Відповісти
Автор Повідомлення
Anonymous 







2018-08-11 10:56  
Шерлок Гномс / Sherlock Gnomes (2018) Ukr/Eng | Sub Ukr/Eng

Усі українські постери:






















Жанр: анімаційний, детектив, комедія, мелодрама, пригодницький, сімейний, фентезі
Країна: Велика Британія, США



Кінокомпанія: Metro-Goldwyn-Mayer (MGM), Paramount Pictures, Rocket Pictures
Режисер: Джон Стівенсон
Актори: Джеймс Макевой, Емілі Блант, Джонні Депп, Чіветел Еджиофор, Мері Джей Блайдж, Майкл Кейн, Джемі Деметріу, Меггі Сміт, Ешлі Дженсен, Метт Лукас

Сюжет:
Гномео та Джульєтта переїжджають до Лондона. Ох, скільки всього нового їх чекає, скільки пригод і відкриттів. Весна вже зовсім близько, тому всі садові гноми готуються до неї як можуть. Але по величезному мегаполісі проходить серія викрадень їхніх побратимів. Тепер кожен садовий гном боїться за свою цілісність, адже забрати можуть і його. І сталося найстрашніше – викрали всіх друзів Гномео і Джульєтти, тільки цю любовну парочку пронесло. Шукати зниклих гномів готовий найкращий детектив на Землі – Шерлок Гномс. Він разом зі своїм постійним супутником Ватсоном зробить усе можливе, щоб урятувати існування садових гномів.


Тривалість: 01:26:19
Якість:

Відео:
кодек:
розмір кадру: 720 х 304
бітрейт: 2022 кб/с

Аудіо # 1:
мова: українська
переклад: професійний дубльований
кодек: 2.0
бітрейт: 192 кб/с

Аудіо # 2:
мова: англійська
переклад: оригінал
кодек: 2.0
бітрейт: 192 кб/с

Субтитри # 1-2:
мова: українська (форсовані, повні)
тип: програмні (м'які)
формат: *.srt

Субтитри # 3-4:
мова: англійська (повні, SDH)
тип: програмні (м'які)
формат: *.srt
Info
Код:
General
Complete name               : Sherlock Gnomes (2018) [Ukr,Eng] [Hurtom].avi
Format                      : AVI
Format/Info                 : Audio Video Interleave
File size                   : 1.46 GiB
Duration                    : 1 h 26 min
Overall bit rate            : 2 420 kb/s
Movie name                  : Шерлок Гномс / Sherlock Gnomes (2018) [Ukr,Eng] [Hurtom]
Genre                       : анімаційний, детектив, комедія, мелодрама, пригодницький, сімейний, фентезі
Recorded date               : 11.08.2018
Writing application         : VirtualDubModUkr 1.5.10.2 (build 2542/release)
Writing library             : VirtualDubMod build 2542/release
Comment                     : https://toloka.to/t94166

Video
ID                          : 0
Format                      : MPEG-4 Visual
Format profile              : Advanced [email protected]
Format settings             : BVOP1 / Custom Matrix
Format settings, BVOP       : 1
Format settings, QPel       : No
Format settings, GMC        : No warppoints
Format settings, Matrix     : Custom
Codec ID                    :
Codec ID/Hint               :
Duration                    : 1 h 26 min
Bit rate                    : 2 022 kb/s
Width                       : 720 pixels
Height                      : 304 pixels
Display aspect ratio        : 2.35:1
Frame rate                  : 23.976 (24000/1001) FPS
Color space                 : YUV
Chroma subsampling          : 4:2:0
Bit depth                   : 8 bits
Scan type                   : Progressive
Compression mode            : Lossy
Bits/(Pixel*Frame)          : 0.385
Stream size                 : 1.22 GiB (84%)
Writing library             : 73

Audio #1
ID                          : 1
Format                      : AC-3
Format/Info                 : Audio Coding 3
Codec ID                    : 2000
Duration                    : 1 h 26 min
Bit rate mode               : Constant
Bit rate                    : 192 kb/s
Channel(s)                  : 2 channels
Channel positions           : Front: L R
Sampling rate               : 48.0 kHz
Frame rate                  : 31.250 FPS (1536 SPF)
Bit depth                   : 16 bits
Compression mode            : Lossy
Stream size                 : 119 MiB (8%)
Alignment                   : Split accross interleaves
Interleave, duration        : 42  ms (1.00 video frame)
Interleave, preload duratio : 500  ms
Title                       : UKR DUB [іТunеs]
Service kind                : Complete Main

Audio #2
ID                          : 2
Format                      : AC-3
Format/Info                 : Audio Coding 3
Codec ID                    : 2000
Duration                    : 1 h 26 min
Bit rate mode               : Constant
Bit rate                    : 192 kb/s
Channel(s)                  : 2 channels
Channel positions           : Front: L R
Sampling rate               : 48.0 kHz
Frame rate                  : 31.250 FPS (1536 SPF)
Bit depth                   : 16 bits
Compression mode            : Lossy
Stream size                 : 119 MiB (8%)
Alignment                   : Split accross interleaves
Interleave, duration        : 42  ms (1.00 video frame)
Interleave, preload duratio : 500  ms
Title                       : ENG, Original
Service kind                : Complete Main




Підтримати купівлю інших фільмів можна тут.


Джерело: &
Українська доріжка - AngryBirdsUA.


 Трекер:    Зареєстрований   

Завантажити / скачати мультфільм українською



відео для новачків



 Зареєстрований:   2018-08-11 14:37
 Розмір:   1.46 GB 
 Оцінка мультфільму:   9.7/10 (Голосів: 69)
   
bot 
робот


З нами з: 30.09.07
Востаннє: 26.05.05
Повідомлень: 25918

2018-08-11 14:37  
Тему перенесено з Анонси релізів до форуму Мультфільми


igor911

alonzo 
VIP


З нами з: 30.08.15
Востаннє: 23.10.20
Повідомлень: 345

2018-08-28 20:41  
6 релізів , а коментарів по мульту 0 !
ProgBassing 
Попереджень: 1
Попереджень: 1 


З нами з: 08.03.08
Востаннє: 25.10.20
Повідомлень: 873

2018-08-28 21:58  
так це по-ходу продовження "Гномео і Джульєтти" -> https://www.imdb.com/title/tt0377981/?ref_=tt_rec_tt

...а то досить якісна мульта була, ще й Оззі оленя там звучив ))

alonzo 
VIP


З нами з: 30.08.15
Востаннє: 23.10.20
Повідомлень: 345

2018-08-29 18:26  
ProgBassing
дякую!

AnnaBogdan 
Свій


З нами з: 16.10.16
Востаннє: 03.10.20
Повідомлень: 94

2018-09-02 16:05  
чудовий мультик і анімація прикольна. 10/10
d.j.Denver 
Новенький


З нами з: 30.09.17
Востаннє: 18.10.20
Повідомлень: 1

2018-09-23 18:55  
В описі мультфільма, українською краще використати не "сищик", а нишпорка. Happy

За реліз дякую.

candiceborgia 
Новенький


З нами з: 26.01.16
Востаннє: 24.10.20
Повідомлень: 6

2018-09-27 10:33  
чудовий мультфільм. отримала багато задоволення від перегляду
Ваш часовий пояс: GMT + 2 Години

Нова тема   Відповісти