Хешер / Hesher (2010) AVC Ukr/Eng | Sub Ukr/Eng

Нові коментарі

Нова тема   Відповісти
Останній раз роздавалося staf777 (2019-11-22)
Автор Повідомлення
staf777 
Відео Гуртом - підтримка та поширення
Відео Гуртом - підтримка та поширення


З нами з: 16.11.16
Востаннє: 22.11.19
Повідомлень: 3034

2018-08-11 09:41  
Хешер / Hesher (2010) AVC Ukr/Eng | Sub Ukr/Eng

Хешер / Hesher (2010) AVC Ukr/Eng | Sub Ukr/Eng

«Sometimes life gives you the finger and sometimes it gives you...»


Оригінальний постер

Хешер / Hesher (2010) AVC Ukr/Eng | Sub Ukr/Eng
Жанр: драма
Країна: США



Кіностудія / кінокомпанія: Last Picture Company, The, CatchPlay, Corner Store Entertainment
Режисер: Спенсер Сассер
Актори: Джозеф Гордон-Люїтт, Наталі Портман, Девін Брошу, Рейн Уілсон та інші

Сюжет:
Хешер - одинак. Він ненавидить світ і всіх, хто в ньому живе. Він ходить з давно не митим волоссям і саморобними татуюваннями, які прикрашають його тіло. Він погано харчується і курить багато сигарет. Він любить вогонь і часто підпалює різні предмети. Він мирно жив у своєму фургоні доки не зустрів Ті Джея ...


Тривалість: 01:45:55
Якість: AVC
Відео:
кодек:
розмір кадру: 1024x418
бітрейт: 1618 кб/с

Аудіо # 1:
мова: українська
переклад: одноголосий закадровий | Ursulyak [ BOOGud ] | UAVoice
кодек: 2.0
бітрейт: 256 кб/с

Аудіо # 2:
мова: англійська
переклад: оригінал
кодек: 5.1
бітрейт: 448 кб/с

Субтитри #1:
мова: українська
тип: пререндерні
формат: PGS
примітка: переклад та синхронізація aalleexx85

Субтитри # 2-3:
мова: англійська (повні, SDH)
тип: пререндерні
формат: PGS
Info
General
Unique ID : 206104539268679092653332605494041415970 (0x9B0E4A56AEB184B77CA9D37AE5429122)
Complete name : H:\» Українське озвучення » Фільми\Драма\Hesher (2010) AVC [Ukr,Eng sub.Ukr,Eng] [Hurtom].
Format :
Format version : Version 4 / Version 2
File size : 1.74 GiB
Duration : 1 h 45 min
Overall bit rate : 2 354 kb/s
Movie name : Hesher (2010) AVC [Ukr,Eng sub.Ukr,Eng] [Hurtom]
Encoded date : UTC 2018-08-11 17:48:05
Writing application : v24.0.0 ('Beyond The Pale') 64-bit
Writing library : libebml v1.3.6 + v1.4.9
Cover : Yes
Attachments : cover.jpg.jpg

Video
ID : 1
Format : AVC
Format/Info : Advanced Video Codec
Format profile : [email protected]
Format settings : CABAC / 4 Ref Frames
Format settings, CABAC : Yes
Format settings, ReFrames : 4 frames
Codec ID : V_MPEG4/ISO/AVC
Duration : 1 h 45 min
Bit rate : 1 618 kb/s
Width : 1 024 pixels
Height : 418 pixels
Display aspect ratio : 2.450
Frame rate mode : Constant
Frame rate : 23.976 (24000/1001) FPS
Color space : YUV
Chroma subsampling : 4:2:0
Bit depth : 8 bits
Scan type : Progressive
Bits/(Pixel*Frame) : 0.158
Stream size : 1.20 GiB (69%)
Writing library : core 115 r1995 c1e60b9
Encoding settings : cabac=1 / ref=4 / deblock=1:-3:-3 / analyse=0x3:0x113 / me=umh / subme=10 / psy=1 / psy_rd=1.00:0.00 / mixed_ref=1 / me_range=32 / chroma_me=1 / trellis=2 / 8x8dct=1 / cqm=0 / deadzone=21,11 / fast_pskip=0 / chroma_qp_offset=-2 / threads=3 / sliced_threads=0 / nr=0 / decimate=1 / interlaced=0 / bluray_compat=0 / constrained_intra=0 / bframes=9 / b_pyramid=2 / b_adapt=2 / b_bias=0 / direct=3 / weightb=1 / open_gop=0 / weightp=2 / keyint=250 / keyint_min=23 / scenecut=40 / intra_refresh=0 / rc_lookahead=40 / rc=crf / mbtree=0 / crf=17.0 / qcomp=0.60 / qpmin=0 / qpmax=69 / qpstep=4 / vbv_maxrate=50000 / vbv_bufsize=62500 / crf_max=0.0 / nal_hrd=none / ip_ratio=1.40 / pb_ratio=1.30 / aq=1:0.80
Language : English
Default : Yes
Forced : No

Audio #1
ID : 2
Format : AC-3
Format/Info : Audio Coding 3
Codec ID : A_AC3
Duration : 1 h 45 min
Bit rate mode : Constant
Bit rate : 256 kb/s
Channel(s) : 2 channels
Channel positions : Front: L R
Sampling rate : 48.0 kHz
Frame rate : 31.250 FPS (1536 SPF)
Bit depth : 16 bits
Compression mode : Lossy
Stream size : 194 MiB (11%)
Title : | Ursulyak [ BOOGud ] | UAVoice
Language : Ukrainian
Service kind : Complete Main
Default : Yes
Forced : Yes

Audio #2
ID : 3
Format : AC-3
Format/Info : Audio Coding 3
Codec ID : A_AC3
Duration : 1 h 45 min
Bit rate mode : Constant
Bit rate : 448 kb/s
Channel(s) : 6 channels
Channel positions : Front: L C R, Side: L R, LFE
Sampling rate : 48.0 kHz
Frame rate : 31.250 FPS (1536 SPF)
Bit depth : 16 bits
Compression mode : Lossy
Stream size : 339 MiB (19%)
Language : English
Service kind : Complete Main
Default : No
Forced : No

Text #1
ID : 4
Format : PGS
Muxing mode : zlib
Codec ID : S_HDMV/PGS
Codec ID/Info : Picture based subtitle format used on BDs/HD-DVDs
Duration : 1 h 37 min
Bit rate : 32.5 kb/s
Count of elements : 1640
Stream size : 22.6 MiB (1%)
Language : Ukrainian
Default : No
Forced : No

Text #2
ID : 5
Format : PGS
Muxing mode : zlib
Codec ID : S_HDMV/PGS
Codec ID/Info : Picture based subtitle format used on BDs/HD-DVDs
Duration : 1 h 37 min
Bit rate : 25.4 kb/s
Count of elements : 2110
Stream size : 17.7 MiB (1%)
Language : English
Default : No
Forced : No

Text #3
ID : 6
Format : PGS
Muxing mode : zlib
Codec ID : S_HDMV/PGS
Codec ID/Info : Picture based subtitle format used on BDs/HD-DVDs
Duration : 1 h 39 min
Bit rate : 29.8 kb/s
Count of elements : 2582
Stream size : 21.1 MiB (1%)
Language : English
Default : No
Forced : No

Menu
00:00:00.000 : en:
00:09:14.220 : en:
00:13:58.712 : en:
00:19:38.635 : en:
00:25:51.883 : en:
00:36:29.520 : en:
00:42:32.841 : en:
00:47:50.576 : en:
00:55:56.519 : en:
01:00:16.946 : en:
01:07:08.774 : en:
01:15:06.001 : en:
01:20:21.024 : en:
01:25:57.402 : en:
01:30:11.239 : en:
01:38:32.615 : en:
Світлини





Джерело: &
За постер подяка п.bilenkuyboy
Особиста оцінка: 0 - не дивився
Хешер / Hesher (2010) AVC Ukr/Eng | Sub Ukr/Eng


Авторський реліз (завантажувати можна без реєстрації)
 Трекер:    Зареєстрований   

Завантажити / скачати фільм українською



відео для новачків



 Зареєстрований:   2018-08-11 20:08
 Розмір:   1.74 GB 
 Оцінка фільму:   7.6/10 (Голосів: 17)
   
Інші релізи
   Хешер / Hesher (2010) Remux 1080p Ukr/Eng | Sub Ukr/Eng staf777  1 / 0   29.59 GB   2017-01-16 14:05 
   Хешер / Hesher (2010) 720p Ukr/Eng | Sub Ukr/Eng 11FrYkT  2 / 0   4.56 GB   2012-08-01 10:31 
   Хешер / Hesher (2010) Ukr/Eng | sub Ukr / Eng BOOGud  1 / 0   2.04 GB   2012-07-28 13:58 
bot 
робот


З нами з: 30.09.07
Востаннє: 26.05.05
Повідомлень: 22502

2018-08-11 20:08  
Тему перенесено з Анонси релізів до форуму Фільми


staf777

SrGr 
Свій


З нами з: 15.01.12
Востаннє: 20.11.19
Повідомлень: 87

2018-08-12 13:46  
Нудне депресивне кіно. Як і озвучування.
The Darknesss 
Новенький


З нами з: 29.03.17
Востаннє: 17.11.19
Повідомлень: 18

2018-08-13 17:13  
Хороший фільм
romale09 
Частий відвідувач


З нами з: 17.10.11
Востаннє: 22.11.19
Повідомлень: 28

2018-08-14 20:53  
SrGr
Підтримую, фільм явно з сорту нижче 2-го, озвучка теж

OL3X 
VIP


З нами з: 25.11.15
Востаннє: 22.11.19
Повідомлень: 439

2018-08-16 21:01  
фільм топ
d4 
Новенький


З нами з: 04.12.16
Востаннє: 22.11.19
Повідомлень: 1

2018-08-29 13:22  
Важкий, але хороший фільм.
Однозначно вартий уваги любителів арт хаусу (онлі).

Ваш часовий пояс: GMT + 2 Години

Нова тема   Відповісти