Джанго / Django (1966) 1080p Ukr/Ita

Нові коментарі

Нова тема   Відповісти
Автор Повідомлення
Anonymous 







2018-08-10 19:55  
Джанго / Django (1966) 1080p Ukr/Ita

Джанго / Django (1966) 1080p Ukr/Ita


Жанр: вестерн
Країна: Італія, Іспанія



Кінокомпанія: B.R.C. Produzione S.r.l.
Режисер: Серджіо Корбуччі (Sergio Corbucci)
Актори: Франко Неро (Franco Nero), Хозе Бодало (Jose Bodalo), Лоредана Нущяк (Loredana Nusciak), Джино Перніс (Gino Pernice) та інші

Сюжет:
Як завжди, Дикий Захід наповнений бандитами і головорізами. Тероризм процвітає на території невеликого містечка, поки в ньому не з'являється захисник слабких і пригноблених Джанго. Він з'являється нізвідки, притягнувши за собою на мотузці труну з «секретом». Важка місія по захисту пригноблених, але, як завжди, здійсненна, тим більше, якщо за справу береться Джанго.


Тривалість: 01:31:37
Якість: 1080p
Відео:
кодек:
розмір кадру: 1776х1080
бітрейт: 9 223 кб/с

Аудіо # 1:
мова: українська
переклад: багатоголосий закадровий
кодек: 2.0
бітрейт: 192 кб/с

Аудіо # 2:
мова: італійська
переклад: оригінал
кодек: 2.0
бітрейт: 510 кб/с
Info
General
Unique ID : 215918081884311510246333625351573993159 (0xA2704F58762395418B6D21BBAC79F6C7)
Format :
Format version : Version 4 / Version 2
File size : 6.68 GiB
Duration : 1 h 31 min
Overall bit rate : 10.4 Mb/s
Encoded date : UTC 2018-08-10 17:46:23
Writing application : v6.1.0 ('Old Devil') built on Mar 4 2013 09:10:42
Writing library : libebml v1.3.0 + v1.4.0

Video
ID : 1
Format : AVC
Format/Info : Advanced Video Codec
Format profile : [email protected]
Format settings : CABAC / 4 Ref Frames
Format settings, CABAC : Yes
Format settings, ReFrames : 4 frames
Codec ID : V_MPEG4/ISO/AVC
Duration : 1 h 31 min
Bit rate : 9 223 kb/s
Width : 1 776 pixels
Height : 1 080 pixels
Display aspect ratio : 16:10
Frame rate mode : Constant
Frame rate : 23.976 (23976/1000) FPS
Color space : YUV
Chroma subsampling : 4:2:0
Bit depth : 8 bits
Scan type : Progressive
Bits/(Pixel*Frame) : 0.201
Stream size : 5.77 GiB (86%)
Writing library : core 129 r2245 bc13772
Encoding settings : cabac=1 / ref=4 / deblock=1:0:0 / analyse=0x3:0x133 / me=umh / subme=7 / psy=1 / psy_rd=1.00:0.00 / mixed_ref=1 / me_range=16 / chroma_me=1 / trellis=1 / 8x8dct=1 / cqm=0 / deadzone=21,11 / fast_pskip=0 / chroma_qp_offset=-2 / threads=12 / lookahead_threads=2 / sliced_threads=0 / nr=0 / decimate=1 / interlaced=0 / bluray_compat=0 / constrained_intra=0 / bframes=3 / b_pyramid=2 / b_adapt=2 / b_bias=0 / direct=3 / weightb=1 / open_gop=0 / weightp=2 / keyint=250 / keyint_min=23 / scenecut=40 / intra_refresh=0 / rc_lookahead=50 / rc=2pass / mbtree=1 / bitrate=9223 / ratetol=1.0 / qcomp=0.60 / qpmin=0 / qpmax=69 / qpstep=4 / cplxblur=20.0 / qblur=0.5 / ip_ratio=1.40 / aq=1:1.00
Language : English
Default : Yes
Forced : No

Audio #1
ID : 2
Format : AC-3
Format/Info : Audio Coding 3
Codec ID : A_AC3
Duration : 1 h 31 min
Bit rate mode : Constant
Bit rate : 192 kb/s
Channel(s) : 2 channels
Channel positions : Front: L R
Sampling rate : 48.0 kHz
Frame rate : 31.250 FPS (1536 SPF)
Bit depth : 16 bits
Compression mode : Lossy
Delay relative to video : 31 ms
Stream size : 126 MiB (2%)
Title : UKR
Language : Ukrainian
Service kind : Complete Main
Default : Yes
Forced : Yes

Audio #2
ID : 3
Format :
Format/Info : Digital Theater Systems
Codec ID : A_DTS
Duration : 1 h 31 min
Bit rate mode : Constant
Bit rate : 510 kb/s
Channel(s) : 2 channels
Channel positions : Front: L R
Sampling rate : 48.0 kHz
Frame rate : 93.750 FPS (512 SPF)
Bit depth : 24 bits
Compression mode : Lossy
Stream size : 334 MiB (5%)
Language : Italian
Default : No
Forced : No

Menu
00:00:00.000 : en:00:00:00.000
00:03:25.205 : en:00:03:25.205
00:14:06.345 : en:00:14:06.345
00:23:08.512 : en:00:23:08.512
00:39:17.397 : en:00:39:17.397
00:45:28.267 : en:00:45:28.267
00:55:08.138 : en:00:55:08.138
01:02:39.756 : en:01:02:39.756
01:14:06.484 : en:01:14:06.484
01:17:43.659 : en:01:17:43.659
01:20:43.297 : en:01:20:43.297
01:26:01.323 : en:01:26:01.323
Скріншоти







За українську доріжку подяка п.: gig_Panas, robotron005
Особиста подяка пану denixx за надану матеріальну допомогу на підтримку цього і майбутніх релізів.
Джерело:


Срібний реліз (на рейтинг впливає 50% завантаженого)
 Трекер:    Зареєстрований   

Завантажити / скачати фільм українською



відео для новачків



 Зареєстрований:   2018-08-11 10:41
 Розмір:   6.35 GB 
 Оцінка фільму:   10/10 (Голосів: 1)
   
Інші релізи
   Джанго / Django (1966) Ukr/Ita/Eng robotron005  2 / 0   1.49 GB   2011-06-17 12:03 
11FrYkT 
Модератор відео


З нами з: 20.02.11
Востаннє: 19.12.18
Повідомлень: 5283

2018-08-11 08:59  
Anonymous написано:

Аудіо # 3:
мова: англійська
переклад: професійний дубльований
кодек: 2.0
бітрейт: 510 кб/с

Крім українських доріжок допускається тільки доріжка і коментарі мовою оригіналу.

Anonymous 







2018-08-11 10:43  
11FrYkT
виправлено

oberezny 
Свій


З нами з: 03.10.12
Востаннє: 19.12.18
Повідомлень: 79

2018-08-11 21:07  
Nusciak транслітерується з італійської як Нущяк, а не Носціак, а José Bódalo (з еспанської - бо це народжений в Аргентині еспанський актор) - Хозе, а не Джос.
ALX_TERRAN 
Новенький


З нами з: 03.06.17
Востаннє: 16.12.18
Повідомлень: 7

2018-09-16 11:05  
Качаю тільки за аудіо доріжку
Ваш часовий пояс: GMT + 2 Години

Нова тема   Відповісти