В тилу у ворога / Behind enemy lines (2001) 720p Ukr/Eng | Sub Eng

Нові коментарі

Нова тема   Відповісти
Автор Повідомлення
Anonymous 







2018-08-10 20:17  
В тилу у ворога / Behind enemy lines (2001) 720p Ukr/Eng | Sub Eng

В тилу у ворога / Behind enemy lines (2001) 720p Ukr/Eng | Sub Eng


Жанр: бойовик, драма, трилер, військовий
Країна: США



Кінокомпанія: Davis Entertainment, Twentieth Century Fox Film Corporation
Режисер: Джон Мур (John Moore)
Актори: Овен Вілсон (Owen Wilson), Джин Хекмен (Gene Hackman), Гебріел Махт (Gabriel Macht), Чарльз Малік Вітфілд (Charles Malik Whitfield), Девід Кейт (David Keith), Олек Крупа (Olek Krupa), Жоакім ді Алмейда (Joaquim de Almeida), Володимир Машков

Сюжет:
Фільм розповідає про американського пілота, якого збито над територією Боснії в 1995 році. Лейтенант Кріс Барнет (Оуен Уільсон) - офіцер американської морської авіації, що несе свою службу на авіаносці. Барнетт, літаючи над територією супротивника, займається розвідкою. Під час свого звичайного польоту з метою фотографування ворожих розташувань, літак Кріса збивають над ворожою територією. Після цього американський льотчик виявляється в ролі жертви, що переслідують безліч ворожих загонів, що йдуть по його сліду. У той час як Кріс намагається вижити на території ворога, його командир адмірал Реігарт (Джин Хекман) одержує наказ не вживати ніяких спроб порятунку Барнетта. Адмірал ігнорує ці накази й починає місію по порятунку свого льотчика, посилаючи за ним морських піхотинців...


Тривалість: 01:45:48
Якість: 720p
Відео:
кодек:
розмір кадру: 1280х544
бітрейт: 7 374 кб/с

Аудіо # 1:
мова: українська
переклад: багатоголосий закадровий ,
кодек: 5.1
бітрейт: 448 кб/с

Аудіо # 2:
мова: англійська
переклад: оригінал
кодек: 5.1
бітрейт: 1 509 кб/с

Субтитри:
мова: англійська
тип: програмні (м'які)
формат: *.srt
Info
General
Unique ID : 249410573744258501608352559192928381178 (0xBBA2BAAF9C01D41AB898CC05CF6B68FA)
Format :
Format version : Version 4 / Version 2
File size : 6.90 GiB
Duration : 1 h 45 min
Overall bit rate : 9 330 kb/s
Encoded date : UTC 2018-08-10 16:55:42
Writing application : v6.1.0 ('Old Devil') built on Mar 4 2013 09:10:42
Writing library : libebml v1.3.0 + v1.4.0

Video
ID : 1
Format : AVC
Format/Info : Advanced Video Codec
Format profile : [email protected]
Format settings : CABAC / 10 Ref Frames
Format settings, CABAC : Yes
Format settings, ReFrames : 10 frames
Codec ID : V_MPEG4/ISO/AVC
Duration : 1 h 45 min
Bit rate : 7 374 kb/s
Width : 1 280 pixels
Height : 544 pixels
Display aspect ratio : 2.35:1
Frame rate mode : Constant
Frame rate : 23.976 (24000/1001) FPS
Color space : YUV
Chroma subsampling : 4:2:0
Bit depth : 8 bits
Scan type : Progressive
Bits/(Pixel*Frame) : 0.442
Stream size : 5.31 GiB (77%)
Writing library : core 98 r1649 20cbe10
Encoding settings : cabac=1 / ref=11 / deblock=1:-3:-3 / analyse=0x3:0x133 / me=umh / subme=9 / psy=1 / psy_rd=1.00:0.00 / mixed_ref=1 / me_range=64 / chroma_me=1 / trellis=2 / 8x8dct=1 / cqm=0 / deadzone=21,11 / fast_pskip=0 / chroma_qp_offset=-2 / threads=6 / sliced_threads=0 / nr=0 / decimate=1 / interlaced=0 / constrained_intra=0 / bframes=6 / b_pyramid=1 / b_adapt=2 / b_bias=0 / direct=3 / weightb=1 / weightp=2 / keyint=250 / keyint_min=25 / scenecut=40 / intra_refresh=0 / rc_lookahead=60 / rc=2pass / mbtree=1 / bitrate=7374 / ratetol=1.0 / qcomp=0.60 / qpmin=10 / qpmax=51 / qpstep=4 / cplxblur=20.0 / qblur=0.5 / vbv_maxrate=50000 / vbv_bufsize=50000 / ip_ratio=1.40 / aq=1:0.80 / nal_hrd=none
Language : English
Default : No
Forced : No

Audio #1
ID : 2
Format : AC-3
Format/Info : Audio Coding 3
Codec ID : A_AC3
Duration : 1 h 45 min
Bit rate mode : Constant
Bit rate : 448 kb/s
Channel(s) : 6 channels
Channel positions : Front: L C R, Side: L R, LFE
Sampling rate : 48.0 kHz
Frame rate : 31.250 FPS (1536 SPF)
Bit depth : 16 bits
Compression mode : Lossy
Stream size : 339 MiB (5%)
Title : UKR (1+1)
Language : Ukrainian
Service kind : Complete Main
Default : Yes
Forced : Yes

Audio #2
ID : 3
Format :
Format/Info : Digital Theater Systems
Codec ID : A_DTS
Duration : 1 h 45 min
Bit rate mode : Constant
Bit rate : 1 509 kb/s
Channel(s) : 6 channels
Channel positions : Front: L C R, Side: L R, LFE
Sampling rate : 48.0 kHz
Frame rate : 93.750 FPS (512 SPF)
Bit depth : 24 bits
Compression mode : Lossy
Delay relative to video : 11 ms
Stream size : 1.12 GiB (16%)
Title : 5.1 1536kbps (Оригинал)
Language : English
Default : No
Forced : No

Text
ID : 4
Format : UTF-8
Codec ID : S_TEXT/UTF8
Codec ID/Info : UTF-8 Plain Text
Language : English
Default : No
Forced : No

Menu
00:00:00.000 : en:00:00:00.000
00:05:48.390 : en:00:05:48.390
00:08:53.783 : en:00:08:53.783
00:12:54.983 : en:00:12:54.983
00:16:14.515 : en:00:16:14.515
00:19:03.642 : en:00:19:03.642
00:21:45.304 : en:00:21:45.304
00:24:17.664 : en:00:24:17.664
00:28:53.982 : en:00:28:53.982
00:33:57.702 : en:00:33:57.702
00:36:55.130 : en:00:36:55.130
00:38:46.324 : en:00:38:46.324
00:40:20.293 : en:00:40:20.293
00:42:12.989 : en:00:42:12.989
00:47:48.991 : en:00:47:48.991
00:54:18.547 : en:00:54:18.547
00:59:04.374 : en:00:59:04.374
01:02:38.713 : en:01:02:38.713
01:03:43.695 : en:01:03:43.695
01:08:28.146 : en:01:08:28.146
01:15:20.850 : en:01:15:20.850
01:19:56.667 : en:01:19:56.667
01:22:38.370 : en:01:22:38.370
01:26:25.347 : en:01:26:25.347
01:30:29.048 : en:01:30:29.048
01:33:20.303 : en:01:33:20.303
01:37:08.573 : en:01:37:08.573
01:38:44.418 : en:01:38:44.418
Скріншоти







За українську доріжку дякую п.: olgaya, JACKUS, karvai0
Особиста подяка пану denixx за надану матеріальну допомогу на підтримку цього і майбутніх релізів.
Джерело:


Срібний реліз (на рейтинг впливає 50% завантаженого)
 Трекер:    Зареєстрований   

Завантажити / скачати фільм українською



відео для новачків



 Зареєстрований:   2018-08-10 20:17
 Розмір:   6.9 GB 
 Оцінка фільму:   9.3/10 (Голосів: 6)
   
Інші релізи
ne4ubo 
Новенький


З нами з: 04.11.14
Востаннє: 20.09.20
Повідомлень: 17

2018-08-11 12:20  
ніяких питань до релізера, але ті хто пишуть опис сюжету мабуть шось курять
"льотчик виявляється в ролі жертви, що переслідують безліч ворожих загонів, що йдуть по його сліду"
переслідують і йдуть по сліду, це просто прекрасно)))

waldi-hurtom 
VIP


З нами з: 07.10.12
Востаннє: 19.09.20
Повідомлень: 1174

2019-04-19 18:01  
Найцікавіше тут, як на мене, F-18. Решта на рівні фільмів Адольфа Лунгрема чи Сігала. 6 з 10.
Ваш часовий пояс: GMT + 2 Години

Нова тема   Відповісти