Супер поліцейські. Диологія / Super Troopers. Diology (2001, 2018) mini 1080p H.265 Ukr/Eng / Sub Ukr/Eng

Нові коментарі

Нова тема   Відповісти
Автор Повідомлення
Anonymous 







2018-08-10 19:45  
Супер поліцейські. Диологія / Super Troopers. Diology (2001, 2018) mini 1080p H.265 Ukr/Eng / Sub Ukr/Eng

Супер поліцейські. Диологія / Super Troopers. Diology (2001, 2018) mini 1080p H.265 Ukr/Eng / Sub Ukr/Eng


Супер патруль / Super Troopers (2001) mini 1080p H.265 2xUkr/Eng | sub Eng
Супер патруль / Super Troopers (2001) mini 1080p H.265 2xUkr/Eng | sub Eng

Супер поліцейські. Диологія / Super Troopers. Diology (2001, 2018) mini 1080p H.265 Ukr/Eng / Sub Ukr/Eng


Жанр: комедія, кримінальний, детектив
Країна: США



Кінокомпанія: Fox Searchlight Pictures, Jersey Shore, Cataland Films
Режисер: Джей Чандрашекхар (Jay Chandrasekhar)
Актори: Брайан Кокс (Brian Cox), Деніел вон Барген (Daniel von Bargen), Андре Віпполіс (André Vippolis), Джої Керн (Joey Kern), Джеффрі Аренд (Geoffrey Arend), Ерік Столханске (Erik Stolhanske)

Сюжет:
Тоні, Мак, Реббіт, Фостер і Фава - поліцейські штату Вермонт, живуть просто чудово. Патрулюючи невелику територію, неподалік канадського кордону, поліцейські розлінились настільки, що вже просто відверто «забивають» на роботу. Але коли в місті урізають бюджет, це починає сильно загрожувати їхній кишені, 5 друзів об'єднуються в боротьбі за виживання.

Щоб повернути все як було, їм необхідно розкрити вбивство і знайти всі можливі наркотики. Супер поліцейські роблять спробу розкрити злочини, тим самим врятувати свою роботу і довести місцевому відділенню поліції, що вони - найкращі.


Тривалість: 01:40:20
Якість:
Відео:
кодек: H.265 (HEVC)
розмір кадру: 1920 х 1040
бітрейт: 5 146 кб/с
бітова глибина: 10 біт
Увага! Перед завантаженням переконайтесь, що ваш пристрій відтворення (та/або ПЗ) підтримує H.265 (HEVC)

Аудіо # 1:
мова: українська
переклад: двоголосий закадровий
кодек: 5.1
бітрейт: 1 510 кб/с

Аудіо # 2:
мова: українська
переклад: двоголосий закадровий
кодек: 2.0
бітрейт: 192 кб/с

Аудіо # 3:
мова: англійська
переклад: оригінал
кодек: 5.1
бітрейт: 397 кб/с

Субтитри # 1:
мова: англійська
тип: програмні (м'які)
формат: .VobSub
Info
Код:
General
Unique ID                                : 326398797076303870522006783052800725018 (0xF58E1F2865046A055C4C9B782156101A)
Complete name                            : F:\Video\Super Troopers. Diology (2001, 2018)\1. Super Troopers (2001) 1080p H.265 [2xUKR_ENG].
Format                                   :
Format version                           : Version 4 / Version 2
File size                                : 5.09 GiB
Duration                                 : 1 h 40 min
Overall bit rate                         : 7 258 kb/s
Movie name                               : Super Troopers (2001)
Encoded date                             : UTC 2018-07-27 10:05:15
Writing application                      : v22.0.0 ('At The End Of The World') 64-bit
Writing library                          : libebml v1.3.5 + v1.4.8
Cover                                    : Yes
Attachments                              : Cover.jpg

Video
ID                                       : 1
Format                                   : HEVC
Format/Info                              : High Efficiency Video Coding
Format profile                           : Main [email protected]@Main
Codec ID                                 : V_MPEGH/ISO/HEVC
Duration                                 : 1 h 40 min
Bit rate                                 : 5 146 kb/s
Width                                    : 1 920 pixels
Height                                   : 1 040 pixels
Display aspect ratio                     : 1.85:1
Frame rate mode                          : Constant
Frame rate                               : 23.976 (24000/1001) FPS
Color space                              : YUV
Chroma subsampling                       : 4:2:0
Bit depth                                : 10 bits
Bits/(Pixel*Frame)                       : 0.107
Stream size                              : 3.61 GiB (71%)
Writing library                          : x265 2.8+40-0106f9f2f867:[Windows][GCC 7.3.0][64 bit] 10bit
Encoding settings                        : cpuid=1111039 / frame-threads=3 / numa-pools=8 / wpp / no-pmode / no-pme / no-psnr / no-ssim / log-level=2 / input-csp=1 / input-res=1920x1040 / interlace=0 / total-frames=144342 / level-idc=0 / high-tier=1 / uhd-bd=0 / ref=4 / no-allow-non-conformance / no-repeat-headers / annexb / no-aud / no-hrd / info / hash=0 / no-temporal-layers / open-gop / min-keyint=23 / keyint=250 / gop-lookahead=0 / bframes=4 / b-adapt=2 / b-pyramid / bframe-bias=0 / rc-lookahead=25 / lookahead-slices=4 / scenecut=40 / radl=0 / no-intra-refresh / ctu=64 / min-cu-size=8 / rect / no-amp / max-tu-size=32 / tu-inter-depth=1 / tu-intra-depth=1 / limit-tu=0 / rdoq-level=2 / dynamic-rd=0.00 / no-ssim-rd / signhide / no-tskip / nr-intra=0 / nr-inter=0 / no-constrained-intra / strong-intra-smoothing / max-merge=3 / limit-refs=3 / limit-modes / me=3 / subme=3 / merange=57 / temporal-mvp / weightp / no-weightb / no-analyze-src-pics / deblock=0:0 / sao / no-sao-non-deblock / rd=4 / no-early-skip / rskip / no-fast-intra / no-tskip-fast / no-cu-lossless / no-b-intra / no-splitrd-skip / rdpenalty=0 / psy-rd=2.00 / psy-rdoq=1.00 / no-rd-refine / no-lossless / cbqpoffs=0 / crqpoffs=0 / rc=abr / bitrate=5145 / qcomp=0.60 / qpstep=4 / stats-write=0 / stats-read=2 / cplxblur=20.0 / qblur=0.5 / ipratio=1.40 / pbratio=1.30 / aq-mode=3 / aq-strength=1.00 / cutree / zone-count=0 / no-strict-cbr / qg-size=32 / no-rc-grain / qpmax=69 / qpmin=0 / no-const-vbv / sar=0 / overscan=0 / videoformat=5 / range=0 / colorprim=2 / transfer=2 / colormatrix=2 / chromaloc=0 / display-window=0 / max-cll=0,0 / min-luma=0 / max-luma=1023 / log2-max-poc-lsb=8 / vui-timing-info / vui-hrd-info / slices=1 / no-opt-qp-pps / no-opt-ref-list-length-pps / multi-pass-opt-rps / scenecut-bias=0.05 / no-opt-cu-delta-qp / aq-motion / no-hdr / no-hdr-opt / no-dhdr10-opt / no-idr-recovery-sei / analysis-reuse-level=5 / scale-factor=0 / refine-intra=0 / refine-inter=0 / refine-mv=0 / no-limit-sao / ctu-info=0 / no-lowpass-dct / refine-mv-type=0 / copy-pic=1 / max-ausize-factor=1.0 / no-dynamic-refine / no-single-sei
Default                                  : Yes
Forced                                   : No

Audio #1
ID                                       : 2
Format                                   :
Format/Info                              : Digital Theater Systems
Codec ID                                 : A_DTS
Duration                                 : 1 h 40 min
Bit rate mode                            : Constant
Bit rate                                 : 1 510 kb/s
Channel(s)                               : 6 channels
Channel positions                        : Front: L C R, Side: L R, LFE
Sampling rate                            : 48.0 kHz
Frame rate                               : 93.750 FPS (512 SPF)
Bit depth                                : 24 bits
Compression mode                         : Lossy
Stream size                              : 1.06 GiB (21%)
Title                                    : Українська доріжка
Language                                 : Ukrainian
Default                                  : Yes
Forced                                   : No

Audio #2
ID                                       : 3
Format                                   : AC-3
Format/Info                              : Audio Coding 3
Codec ID                                 : A_AC3
Duration                                 : 1 h 40 min
Bit rate mode                            : Constant
Bit rate                                 : 192 kb/s
Channel(s)                               : 2 channels
Channel positions                        : Front: L R
Sampling rate                            : 48.0 kHz
Frame rate                               : 31.250 FPS (1536 SPF)
Bit depth                                : 16 bits
Compression mode                         : Lossy
Stream size                              : 138 MiB (3%)
Title                                    : 2+2 channel
Language                                 : Ukrainian
Service kind                             : Complete Main
Default                                  : No
Forced                                   : No

Audio #3
ID                                       : 4
Format                                   :
Format/Info                              : Advanced Audio Codec
Format profile                           : LC
Codec ID                                 : A_AAC-2
Duration                                 : 1 h 40 min
Bit rate                                 : 397 kb/s
Channel(s)                               : 6 channels
Channel positions                        : Front: L C R, Side: L R, LFE
Sampling rate                            : 48.0 kHz
Frame rate                               : 46.875 FPS (1024 SPF)
Compression mode                         : Lossy
Delay relative to video                  : 20 ms
Stream size                              : 285 MiB (5%)
Language                                 : English
Default                                  : No
Forced                                   : No

Text
ID                                       : 5
Format                                   : VobSub
Muxing mode                              : zlib
Codec ID                                 : S_VOBSUB
Codec ID/Info                            : Picture based subtitle format used on DVDs
Duration                                 : 1 h 39 min
Bit rate                                 : 16.0 kb/s
Count of elements                        : 1528
Stream size                              : 11.3 MiB (0%)
Language                                 : English
Default                                  : No
Forced                                   : No

Menu
00:00:00.000                             : en:Chapter 01
00:03:15.320                             : en:Chapter 02
00:06:50.368                             : en:Chapter 03
00:11:49.333                             : en:Chapter 04
00:15:20.878                             : en:Chapter 05
00:18:47.334                             : en:Chapter 06
00:21:46.054                             : en:Chapter 07
00:25:54.886                             : en:Chapter 08
00:31:25.675                             : en:Chapter 09
00:40:01.732                             : en:Chapter 10
00:45:18.632                             : en:Chapter 11
00:55:34.831                             : en:Chapter 12
01:04:09.929                             : en:Chapter 13
01:05:50.071                             : en:Chapter 14
01:07:57.907                             : en:Chapter 15
01:15:28.398                             : en:Chapter 16
01:16:24.913                             : en:Chapter 17
01:20:47.592                             : en:Chapter 18
01:28:00.024                             : en:Chapter 19
01:33:16.507                             : en:Chapter 20
Скріншоти



Супер поліцейські 2 / Super Troopers 2 (2018) mini 1080p H.265 Ukr/Eng | Sub Ukr/Eng/Fre
Супер поліцейські 2 / Super Troopers 2 (2018) mini 1080p H.265 Ukr/Eng | Sub Ukr/Eng/Fre

Супер поліцейські. Диологія / Super Troopers. Diology (2001, 2018) mini 1080p H.265 Ukr/Eng / Sub Ukr/Eng


Жанр: детектив, комедія, кримінал
Країна: США



Кінокомпанія: Votiv Films, Broken Lizard Industries, Cataland Films
Режисер: Джей Чандрашекхар
Актори: Еммануель Шрікі, Роб Лоу, Лінда Картер, Брайан Кокс, Джей Чандрашекхар, Тайлер Лабін, Пол Уолтер Хаузер, Стів Лемм, Маріса Кохлан, Кевін Хеффернан

Сюжет:
Коли на кордоні між США та Канадою виникає напружена ситуація, загону суперполіцейських доручають встановити станцію дорожнього патрулювання в цій суперечливій зоні.


Тривалість: 01:39:31
Якість:
Відео:
кодек: H.265 (HEVC)
розмір кадру: 1920 х 1040
бітрейт: 5 138 кб/с
бітова глибина: 10 біт
Увага! Перед завантаженням переконайтесь, що ваш пристрій відтворення (та/або ПЗ) підтримує H.265 (HEVC)

Аудіо # 1:
мова: українська
переклад: професійний дубльований
кодек: 2.0
бітрейт: 192 кб/с

Аудіо # 2:
мова: англійська
переклад: оригінал
кодек: 5.1
бітрейт: 448 кб/с

Субтитри # 1-2:
мова: українська (Forced, Full)
тип: програмні (м'які)
формат: *.srt

Субтитри # 3-4:
мова: англійська (Full, SDH)
тип: програмні (м'які)
формат: *.srt

Субтитри # 5:
мова: французька (Full)
тип: програмні (м'які)
формат: .VobSub
Info
Код:
General
Unique ID                                : 145468981400599963952128399576437587163 (0x6D704E85968D449507255E546D9F7CDB)
Complete name                            : F:\Video\Super Troopers. Diology (2001, 2018)\2. Super Troopers 2 (2018) 1080p H.265 [UKR_ENG].
Format                                   :
Format version                           : Version 4 / Version 2
File size                                : 4.02 GiB
Duration                                 : 1 h 39 min
Overall bit rate                         : 5 789 kb/s
Movie name                               : Super Troopers 2 (2018)
Encoded date                             : UTC 2018-08-10 16:15:36
Writing application                      : v20.0.0 ('I Am The Sun') 32-bit
Writing library                          : libebml v1.3.5 + v1.4.8
Cover                                    : Yes
Attachments                              : cover

Video
ID                                       : 1
Format                                   : HEVC
Format/Info                              : High Efficiency Video Coding
Format profile                           : Main [email protected]@Main
Codec ID                                 : V_MPEGH/ISO/HEVC
Duration                                 : 1 h 39 min
Bit rate                                 : 5 138 kb/s
Width                                    : 1 920 pixels
Height                                   : 1 040 pixels
Display aspect ratio                     : 1.85:1
Frame rate mode                          : Constant
Frame rate                               : 23.976 (24000/1001) FPS
Color space                              : YUV
Chroma subsampling                       : 4:2:0
Bit depth                                : 10 bits
Bits/(Pixel*Frame)                       : 0.107
Stream size                              : 3.57 GiB (89%)
Writing library                          : x265 2.8+40-0106f9f2f867:[Windows][GCC 7.3.0][64 bit] 10bit
Encoding settings                        : cpuid=1111039 / frame-threads=3 / numa-pools=8 / wpp / no-pmode / no-pme / no-psnr / no-ssim / log-level=2 / input-csp=1 / input-res=1920x1040 / interlace=0 / total-frames=143160 / level-idc=0 / high-tier=1 / uhd-bd=0 / ref=4 / no-allow-non-conformance / no-repeat-headers / annexb / no-aud / no-hrd / info / hash=0 / no-temporal-layers / open-gop / min-keyint=23 / keyint=250 / gop-lookahead=0 / bframes=4 / b-adapt=2 / b-pyramid / bframe-bias=0 / rc-lookahead=25 / lookahead-slices=4 / scenecut=40 / radl=0 / no-intra-refresh / ctu=64 / min-cu-size=8 / rect / no-amp / max-tu-size=32 / tu-inter-depth=1 / tu-intra-depth=1 / limit-tu=0 / rdoq-level=2 / dynamic-rd=0.00 / no-ssim-rd / signhide / no-tskip / nr-intra=0 / nr-inter=0 / no-constrained-intra / strong-intra-smoothing / max-merge=3 / limit-refs=3 / limit-modes / me=3 / subme=3 / merange=57 / temporal-mvp / weightp / no-weightb / no-analyze-src-pics / deblock=0:0 / sao / no-sao-non-deblock / rd=4 / no-early-skip / rskip / no-fast-intra / no-tskip-fast / no-cu-lossless / no-b-intra / no-splitrd-skip / rdpenalty=0 / psy-rd=2.00 / psy-rdoq=1.00 / no-rd-refine / no-lossless / cbqpoffs=0 / crqpoffs=0 / rc=abr / bitrate=5137 / qcomp=0.60 / qpstep=4 / stats-write=0 / stats-read=2 / cplxblur=20.0 / qblur=0.5 / ipratio=1.40 / pbratio=1.30 / aq-mode=3 / aq-strength=1.00 / cutree / zone-count=0 / no-strict-cbr / qg-size=32 / no-rc-grain / qpmax=69 / qpmin=0 / no-const-vbv / sar=0 / overscan=0 / videoformat=5 / range=0 / colorprim=2 / transfer=2 / colormatrix=2 / chromaloc=0 / display-window=0 / max-cll=0,0 / min-luma=0 / max-luma=1023 / log2-max-poc-lsb=8 / vui-timing-info / vui-hrd-info / slices=1 / no-opt-qp-pps / no-opt-ref-list-length-pps / multi-pass-opt-rps / scenecut-bias=0.05 / no-opt-cu-delta-qp / aq-motion / no-hdr / no-hdr-opt / no-dhdr10-opt / no-idr-recovery-sei / analysis-reuse-level=5 / scale-factor=0 / refine-intra=0 / refine-inter=0 / refine-mv=0 / no-limit-sao / ctu-info=0 / no-lowpass-dct / refine-mv-type=0 / copy-pic=1 / max-ausize-factor=1.0 / no-dynamic-refine / no-single-sei
Default                                  : Yes
Forced                                   : No

Audio #1
ID                                       : 2
Format                                   : AC-3
Format/Info                              : Audio Coding 3
Codec ID                                 : A_AC3
Duration                                 : 1 h 39 min
Bit rate mode                            : Constant
Bit rate                                 : 192 kb/s
Channel(s)                               : 2 channels
Channel positions                        : Front: L R
Sampling rate                            : 48.0 kHz
Frame rate                               : 31.250 FPS (1536 SPF)
Bit depth                                : 16 bits
Compression mode                         : Lossy
Stream size                              : 137 MiB (3%)
Title                                    : 2.0 @ 192 kbps
Language                                 : Ukrainian
Service kind                             : Complete Main
Default                                  : Yes
Forced                                   : Yes

Audio #2
ID                                       : 3
Format                                   : AC-3
Format/Info                              : Audio Coding 3
Codec ID                                 : A_AC3
Duration                                 : 1 h 39 min
Bit rate mode                            : Constant
Bit rate                                 : 448 kb/s
Channel(s)                               : 6 channels
Channel positions                        : Front: L C R, Side: L R, LFE
Sampling rate                            : 48.0 kHz
Frame rate                               : 31.250 FPS (1536 SPF)
Bit depth                                : 16 bits
Compression mode                         : Lossy
Stream size                              : 319 MiB (8%)
Title                                    : 5.1 @ 448 kbps
Language                                 : English
Service kind                             : Complete Main
Default                                  : No
Forced                                   : No

Text #1
ID                                       : 4
Format                                   : UTF-8
Codec ID                                 : S_TEXT/UTF8
Codec ID/Info                            : UTF-8 Plain Text
Duration                                 : 59 min 13 s
Bit rate                                 : 1 b/s
Count of elements                        : 14
Stream size                              : 704 Bytes (0%)
Title                                    : Forced
Language                                 : Ukrainian
Default                                  : Yes
Forced                                   : Yes

Text #2
ID                                       : 5
Format                                   : UTF-8
Codec ID                                 : S_TEXT/UTF8
Codec ID/Info                            : UTF-8 Plain Text
Duration                                 : 1 h 37 min
Bit rate                                 : 130 b/s
Count of elements                        : 1803
Stream size                              : 93.2 KiB (0%)
Title                                    : Full
Language                                 : Ukrainian
Default                                  : No
Forced                                   : No

Text #3
ID                                       : 6
Format                                   : UTF-8
Codec ID                                 : S_TEXT/UTF8
Codec ID/Info                            : UTF-8 Plain Text
Duration                                 : 1 h 37 min
Bit rate                                 : 88 b/s
Count of elements                        : 2108
Stream size                              : 63.7 KiB (0%)
Title                                    : Full
Language                                 : English
Default                                  : No
Forced                                   : No

Text #4
ID                                       : 7
Format                                   : UTF-8
Codec ID                                 : S_TEXT/UTF8
Codec ID/Info                            : UTF-8 Plain Text
Duration                                 : 1 h 39 min
Bit rate                                 : 108 b/s
Count of elements                        : 2542
Stream size                              : 79.0 KiB (0%)
Title                                    : SDH
Language                                 : English
Default                                  : No
Forced                                   : No

Text #5
ID                                       : 8
Format                                   : VobSub
Muxing mode                              : zlib
Codec ID                                 : S_VOBSUB
Codec ID/Info                            : Picture based subtitle format used on DVDs
Duration                                 : 1 h 37 min
Bit rate                                 : 12.5 kb/s
Count of elements                        : 1780
Stream size                              : 8.67 MiB (0%)
Language                                 : French
Default                                  : No
Forced                                   : No

Menu
00:00:00.000                             : en:Chapter 01
00:05:15.398                             : en:Chapter 02
00:09:08.756                             : en:Chapter 03
00:12:43.012                             : en:Chapter 04
00:16:12.972                             : en:Chapter 05
00:22:11.955                             : en:Chapter 06
00:26:35.552                             : en:Chapter 07
00:29:48.620                             : en:Chapter 08
00:33:19.956                             : en:Chapter 09
00:36:33.608                             : en:Chapter 10
00:40:04.527                             : en:Chapter 11
00:43:10.879                             : en:Chapter 12
00:46:35.209                             : en:Chapter 13
00:51:43.141                             : en:Chapter 14
00:55:46.801                             : en:Chapter 15
01:01:09.207                             : en:Chapter 16
01:04:57.018                             : en:Chapter 17
01:07:07.064                             : en:Chapter 18
01:11:33.247                             : en:Chapter 19
01:14:53.530                             : en:Chapter 20
01:17:32.522                             : en:Chapter 21
01:22:55.136                             : en:Chapter 22
01:26:08.621                             : en:Chapter 23
01:28:43.901                             : en:Chapter 24
Підтримати купівлю інших фільмів можна тут.

Подяка пану AngryBirdsUA за доріжку.
Скріншоти




Особиста оцінка:0 - не дивився!
Джерело:

ЗАЛИШАЙТЕСЬ ЯКОМОГА ДОВШЕ НА РОЗДАЧІ!
ЗАВАНТАЖИВ САМ - ДАЙ ЗАВАНТАЖИТИ ІНШИМ


Срібний реліз (на рейтинг впливає 50% завантаженого)
 Трекер:    Зареєстрований   

Завантажити / скачати фільм українською



відео для новачків



 Зареєстрований:   2018-08-10 19:45
 Розмір:   9.11 GB 
 Оцінка фільму:   8.3/10 (Голосів: 7)
   
Ваш часовий пояс: GMT + 2 Години

Нова тема   Відповісти