Давайте потанцюємо (Потанцюймо) / Shall We Dance (2004) 1080p 4xUkr/Eng | Sub Eng

Нові коментарі

Нова тема   Відповісти
Автор Повідомлення
Anonymous 







2018-08-10 10:31  
Давайте потанцюємо (Потанцюймо) / Shall We Dance (2004) 1080p 4xUkr/Eng | Sub Eng

Давайте потанцюємо (Потанцюймо) / Shall We Dance (2004) 1080p 4xUkr/Eng | Sub Eng


Жанр: драма, музичний, любовний роман
Країна: США



Кінокомпанія: Miramax Films
Режисер: Пітер Челсом
Актори: Річард Гір, Дженніфер Лопез, С'юзан Сарандон, Стенлі Туччі, Річард Дженкінс, Діана Сальваторе

Сюжет:
Юрист із Чикаго Джон Кларк упевнений, що його життя майже ідеальне. Він любить свою красуню-дружину, зробив успішну кар'єру і виростив двох чудових дітей. І все ж ... будні проходять у звичній рутині, повсякденні поїздки із пригорода в місто і назад виснажують, члени родини занадто зайняті, щоб провести час разом. Іноді Джон задається питанням, невже це так і повинно бути, поки одного разу ввечері по дорозі додому з роботи, він не сходить з поїзда і не робить немислимий вчинок...


Тривалість: 01:46:22
Якість: 1080p
Відео:
кодек:
розмір кадру: 1920х1080
бітрейт: 10,2 Мб/с

Аудіо # 1:
мова: українська
переклад: багатоголосий закадровий
кодек: 2.0
бітрейт: 192 кб/с

Аудіо # 2:
мова: українська
переклад: двоголосий закадровий
кодек: 2.0
бітрейт: 192 кб/с

Аудіо # 3:
мова: українська
переклад: двоголосий закадровий
кодек: 2.0
бітрейт: 192 кб/с

Аудіо # 4:
мова: українська
переклад: двоголосий закадровий
кодек: 2.0
бітрейт: 192 кб/с

Аудіо # 5:
мова: англійська
переклад: оригінал
кодек: 5.1
бітрейт: 1510 кб/с

Аудіо # 6:
мова: англійська (коментарі режисера)
переклад: оригінал
кодек: Vorbis
бітрейт: 80 кб/с

Субтитри:
мова: англійська
тип: програмні (м'які)
формат: *.srt
Info
General
Unique ID : 216553040507273683519483360497024384700 (0xA2EA993901C342ADB791CFAD1D343EBC)
Complete name : H:\Toloka\2019\Shall We Dance (2004) 1080p.
Format :
Format version : Version 4
File size : 9.51 GiB
Duration : 1 h 46 min
Overall bit rate mode : Variable
Overall bit rate : 12.8 Mb/s
Encoded date : UTC 2019-08-18 08:36:33
Writing application : v6.1.0 ('Old Devil') built on Mar 4 2013 09:10:42
Writing library : libebml v1.3.0 + v1.4.0

Video
ID : 1
Format : AVC
Format/Info : Advanced Video Codec
Format profile : [email protected]
Format settings : CABAC / 4 Ref Frames
Format settings, CABAC : Yes
Format settings, RefFrames : 4 frames
Codec ID : V_MPEG4/ISO/AVC
Duration : 1 h 46 min
Bit rate : 10.2 Mb/s
Width : 1 920 pixels
Height : 1 080 pixels
Display aspect ratio : 16:9
Frame rate mode : Constant
Frame rate : 23.976 FPS
Color space : YUV
Chroma subsampling : 4:2:0
Bit depth : 8 bits
Scan type : Progressive
Bits/(Pixel*Frame) : 0.205
Stream size : 7.38 GiB (78%)
Writing library : core 59 r861M 7331ea4
Encoding settings : cabac=1 / ref=4 / deblock=1:-3:-3 / analyse=0x3:0x133 / me=hex / subme=7 / me-prepass=1 / brdo=1 / mixed_ref=1 / me_range=16 / chroma_me=1 / trellis=0 / 8x8dct=1 / cqm=2 / deadzone=6,4 / chroma_qp_offset=0 / threads=6 / nr=0 / decimate=1 / mbaff=0 / bframes=3 / b_pyramid=1 / b_adapt=1 / b_bias=0 / direct=1 / wpredb=1 / bime=1 / keyint=250 / keyint_min=25 / scenecut=40(pre) / rc=2pass / bitrate=10181 / ratetol=1.0 / rceq='blurCplx^(1-qComp)' / qcomp=1.00 / qpmin=10 / qpmax=51 / qpstep=4 / cplxblur=20.0 / qblur=0.5 / ip_ratio=1.40 / pb_ratio=1.30 / aq=2:1.20
Language : English
Default : Yes
Forced : No

Audio #1
ID : 2
Format : AC-3
Format/Info : Audio Coding 3
Commercial name : Dolby Digital
Codec ID : A_AC3
Duration : 1 h 46 min
Bit rate mode : Constant
Bit rate : 192 kb/s
Channel(s) : 2 channels
Channel layout : L R
Sampling rate : 48.0 kHz
Frame rate : 31.250 FPS (1536 SPF)
Bit depth : 16 bits
Compression mode : Lossy
Stream size : 146 MiB (2%)
Title : UKR (K1)
Language : Ukrainian
Service kind : Complete Main
Default : Yes
Forced : Yes

Audio #2
ID : 3
Format : AC-3
Format/Info : Audio Coding 3
Commercial name : Dolby Digital
Codec ID : A_AC3
Duration : 1 h 46 min
Bit rate mode : Constant
Bit rate : 192 kb/s
Channel(s) : 2 channels
Channel layout : L R
Sampling rate : 48.0 kHz
Frame rate : 31.250 FPS (1536 SPF)
Bit depth : 16 bits
Compression mode : Lossy
Stream size : 146 MiB (2%)
Title : UKR (TET)
Language : Ukrainian
Service kind : Complete Main
Default : No
Forced : No

Audio #3
ID : 4
Format : AC-3
Format/Info : Audio Coding 3
Commercial name : Dolby Digital
Codec ID : A_AC3
Duration : 1 h 46 min
Bit rate mode : Constant
Bit rate : 448 kb/s
Channel(s) : 6 channels
Channel layout : L R C LFE Ls Rs
Sampling rate : 48.0 kHz
Frame rate : 31.250 FPS (1536 SPF)
Bit depth : 16 bits
Compression mode : Lossy
Stream size : 341 MiB (4%)
Title : UKR (СТБ)
Language : Ukrainian
Service kind : Complete Main
Default : No
Forced : No

Audio #4
ID : 5
Format : AC-3
Format/Info : Audio Coding 3
Commercial name : Dolby Digital
Codec ID : A_AC3
Duration : 1 h 46 min
Bit rate mode : Constant
Bit rate : 192 kb/s
Channel(s) : 2 channels
Channel layout : L R
Sampling rate : 48.0 kHz
Frame rate : 31.250 FPS (1536 SPF)
Bit depth : 16 bits
Compression mode : Lossy
Stream size : 146 MiB (2%)
Title : UKR (AMC)
Language : Ukrainian
Service kind : Complete Main
Default : No
Forced : No

Audio #5
ID : 6
Format :
Format/Info : Digital Theater Systems
Codec ID : A_DTS
Duration : 1 h 46 min
Bit rate mode : Constant
Bit rate : 1 510 kb/s
Channel(s) : 6 channels
Channel layout : C L R Ls Rs LFE
Sampling rate : 48.0 kHz
Frame rate : 93.750 FPS (512 SPF)
Bit depth : 24 bits
Compression mode : Lossy
Stream size : 1.12 GiB (12%)
Title : ENG
Language : English
Default : No
Forced : No

Audio #6
ID : 7
Format : Vorbis
Format settings, Floor : 1
Codec ID : A_VORBIS
Duration : 1 h 46 min
Bit rate mode : Variable
Bit rate : 80.0 kb/s
Channel(s) : 2 channels
Sampling rate : 48.0 kHz
Compression mode : Lossy
Stream size : 60.9 MiB (1%)
Title : Director's Commentary
Writing library : libVorbis 1.2 (UTC 2007-06-22)
Language : English
Default : No
Forced : No

Text
ID : 8
Format : UTF-8
Codec ID : S_TEXT/UTF8
Codec ID/Info : UTF-8 Plain Text
Language : English
Default : No
Forced : No
Скріншоти






За доріжку від СТБ дякую п.: JACKUS, drakon87
За доріжку від К1 дякую п.: bodia87, Arsenfpu
За доріжку від ТЕТ дякую п.: Neytreenor, Arsenfpu
За запис звуку з каналу АМС дякуємо пану kryk-v.ya.
Особиста подяка пану denixx за надану матеріальну допомогу на підтримку цього і майбутніх релізів.
Джерело:


Срібний реліз (на рейтинг впливає 50% завантаженого)
 Трекер:    Зареєстрований   

Завантажити / скачати фільм українською



відео для новачків



 Зареєстрований:   2019-08-18 11:44
 Розмір:   9.51 GB 
 Оцінка фільму:   9.8/10 (Голосів: 8)
   
sanyokfuriv 
Свій


З нами з: 05.07.11
Востаннє: 22.09.20
Повідомлень: 68

2018-08-11 21:59  
Станьте на роздачу будь ласка!
Anonymous 







2018-08-11 22:07  
sanyokfuriv
цілий день стою. Відкрийте свої порти

sanyokfuriv 
Свій


З нами з: 05.07.11
Востаннє: 22.09.20
Повідомлень: 68

2018-08-12 14:10  
швидкість дуже повільна 150-215 кб/с (((

Додано через 2 години 54 хвилини 17 секунд:

що з швидкістю, чому так повільно завантажується? 150-215 кб/с не біільше

Anonymous 







2018-08-12 14:19  
sanyokfuriv
можливо тому, що я роздаю ще багато інших фільмів

sanyokfuriv 
Свій


З нами з: 05.07.11
Востаннє: 22.09.20
Повідомлень: 68

2018-08-15 18:23  
нічого не роздає взагалі не завантажується, а мені залишилося 2,5 гіга докачати (((
sanyokfuriv 
Свій


З нами з: 05.07.11
Востаннє: 22.09.20
Повідомлень: 68

2018-08-16 18:22  
народ дайте докачати 600 мб взагалі не качається ((
sanyokfuriv 
Свій


З нами з: 05.07.11
Востаннє: 22.09.20
Повідомлень: 68

2018-08-17 19:12  
Ауууууу! Та станьте на роздачу , ще 600 мб залишилося , ніяк не можу докачати вже декілька днів, це просто жах ((
MNSboss 
Новенький


З нами з: 07.07.17
Востаннє: 10.08.20
Повідомлень: 3

2019-01-27 00:39  
Шановний Anonymous!
Станьте будь ласка на роздачу!

MNSboss 
Новенький


З нами з: 07.07.17
Востаннє: 10.08.20
Повідомлень: 3

2019-01-29 18:16  
sanyokfuriv написано:
Ауууууу! Та станьте на роздачу , ще 600 мб залишилося , ніяк не можу докачати вже декілька днів, це просто жах ((


sanyokfuriv ви тут гарно аукали, що не можете докачати 600 мб, чому я не бачу вас на роздачі, чи вам головне закачати фільм і швидко видалити торрент а інші хай сами собі допомагають?

igor911 
Модератор відео


З нами з: 18.01.08
Востаннє: 22.09.20
Повідомлень: 15000

2019-08-18 14:09  
Anonymous, треба вказати, що змінилось в релізі та оновити звіт Info,
Anonymous 







2019-08-18 14:20  
igor911
Додав доріжку від АМС
Звіт Info оновив.

Ваш часовий пояс: GMT + 2 Години

Нова тема   Відповісти