Планкет та Маклейн / Plunkett & Macleane (1999) 1080p Ukr/Eng | Sub Eng

Нові коментарі

Нова тема   Відповісти
Автор Повідомлення
staf777 
Відео Гуртом - підтримка та поширення
Відео Гуртом - підтримка та поширення


З нами з: 16.11.16
Востаннє: 20.04.19
Повідомлень: 2270

2018-08-10 09:40  
Планкет та Маклейн / Plunkett & Macleane (1999) 1080p Ukr/Eng | Sub Eng

Планкет та Маклейн / Plunkett & Macleane (1999) 1080p Ukr/Eng | Sub Eng


Жанр: історичний, пригодницький, бойовик, драма
Країна: Велика Британія



Кінокомпанія: Working Title Films, PolyGram Filmed Entertainment
Режисер: Джейк Скотт / Jake Scott
Актори: Джоні Лі Міллер, Роберт Карлайл, Лів Тайлер, Майкл Гембон, Елан Каммінг, Камарго Крістіан, Бен Міллер, Теренс Рігбі, Айейн Робертсон, Кен Стотт, Джеймс Торнтон, Стівен Волтерс, Томмі Фленеген

Сюжет:
Барвистий, чудово поставлений історико-костюмований бойовик, події якого розгортаються в Англії XVII сторіччя. Вілл Планкетт - звичайний нероба-простолюдин, що проміняв професію аптекаря на романтику великої дороги. Джеймс Маклейн - колишній аристократ, що набрався боргів і тому вимушений круто змінити своє життя. Разом Планкетт і Маклейн - невловимі й ніким не перевершені розбійники, що здійснюють найнеймовірніші авантюри і пограбування. Єдина коштовність, яка може опинитися не по зубах безтурботним "лицарям ножа й пістолету", - красуня Ребекка, дочка головного королівського прокурора...


Тривалість: 01:41:26
Якість: 1080p
Відео:
кодек:
розмір кадру: 1920x816
бітрейт: 9360 кб/с

Аудіо # 1:
мова: українська
переклад: двоголосий закадровий
кодек: 5.1
бітрейт: 384 кб/с

Аудіо # 2:
мова: англійська
переклад: оригінал
кодек: 5.1
бітрейт: 448 кб/с

Субтитри # 1-2:
мова: англійська
тип: програмні (м'які)
формат: *.srt
Info
General
Unique ID : 167412015574837066550074079570522747955 (0x7DF261A26B7ABBF65ECF47B871373433)
Complete name : G:\Майбутні релізи\ Plunkett & Macleane (1999) 1080p[Ukr,Eng sub.Eng] [Hurtom].
Format :
Format version : Version 4 / Version 2
File size : 7.22 GiB
Duration : 1 h 41 min
Overall bit rate : 10.2 Mb/s
Movie name : Plunkett & Macleane (1999) 1080p[Ukr,Eng sub.Eng] [Hurtom]
Encoded date : UTC 2018-08-09 08:25:13
Writing application : v24.0.0 ('Beyond The Pale') 64-bit
Writing library : libebml v1.3.6 + v1.4.9
Cover : Yes
Attachments : cover.jpg

Video
ID : 1
Format : AVC
Format/Info : Advanced Video Codec
Format profile : [email protected]
Format settings : CABAC / 5 Ref Frames
Format settings, CABAC : Yes
Format settings, ReFrames : 5 frames
Codec ID : V_MPEG4/ISO/AVC
Duration : 1 h 41 min
Bit rate : 9 360 kb/s
Width : 1 920 pixels
Height : 816 pixels
Display aspect ratio : 2.35:1
Frame rate mode : Constant
Frame rate : 23.976 (24000/1001) FPS
Color space : YUV
Chroma subsampling : 4:2:0
Bit depth : 8 bits
Scan type : Progressive
Bits/(Pixel*Frame) : 0.249
Stream size : 6.63 GiB (92%)
Title : Plunkett.and.Macleane.1999.1080p.BluRay
Writing library : core 155 r2901 7d0ff22
Encoding settings : cabac=1 / ref=5 / deblock=1:-3:-3 / analyse=0x3:0x113 / me=umh / subme=8 / psy=1 / psy_rd=1.05:0.00 / mixed_ref=1 / me_range=32 / chroma_me=1 / trellis=2 / 8x8dct=1 / cqm=0 / deadzone=21,11 / fast_pskip=1 / chroma_qp_offset=-2 / threads=25 / lookahead_threads=4 / sliced_threads=0 / nr=0 / decimate=1 / interlaced=0 / bluray_compat=0 / constrained_intra=0 / bframes=3 / b_pyramid=2 / b_adapt=2 / b_bias=0 / direct=3 / weightb=1 / open_gop=0 / weightp=2 / keyint=240 / keyint_min=24 / scenecut=40 / intra_refresh=0 / rc_lookahead=50 / rc=2pass / mbtree=1 / bitrate=9360 / ratetol=1.0 / qcomp=0.60 / qpmin=0 / qpmax=69 / qpstep=4 / cplxblur=20.0 / qblur=0.5 / ip_ratio=1.40 / aq=3:0.75
Language : English
Default : Yes
Forced : No

Audio #1
ID : 2
Format : AC-3
Format/Info : Audio Coding 3
Codec ID : A_AC3
Duration : 1 h 41 min
Bit rate mode : Constant
Bit rate : 384 kb/s
Channel(s) : 6 channels
Channel positions : Front: L C R, Side: L R, LFE
Sampling rate : 48.0 kHz
Frame rate : 31.250 FPS (1536 SPF)
Bit depth : 16 bits
Compression mode : Lossy
Stream size : 278 MiB (4%)
Title : DVO
Language : Ukrainian
Service kind : Complete Main
Default : Yes
Forced : Yes

Audio #2
ID : 3
Format : AC-3
Format/Info : Audio Coding 3
Codec ID : A_AC3
Duration : 1 h 41 min
Bit rate mode : Constant
Bit rate : 448 kb/s
Channel(s) : 6 channels
Channel positions : Front: L C R, Side: L R, LFE
Sampling rate : 48.0 kHz
Frame rate : 31.250 FPS (1536 SPF)
Bit depth : 16 bits
Compression mode : Lossy
Stream size : 325 MiB (4%)
Language : English
Service kind : Complete Main
Default : No
Forced : No

Text #1
ID : 4
Format : UTF-8
Codec ID : S_TEXT/UTF8
Codec ID/Info : UTF-8 Plain Text
Duration : 1 h 39 min
Bit rate : 40 b/s
Count of elements : 1175
Stream size : 29.1 KiB (0%)
Language : English
Default : No
Forced : No

Text #2
ID : 5
Format : UTF-8
Codec ID : S_TEXT/UTF8
Codec ID/Info : UTF-8 Plain Text
Duration : 1 h 41 min
Bit rate : 45 b/s
Count of elements : 1404
Stream size : 33.8 KiB (0%)
Title : SDH
Language : English
Default : No
Forced : No

Menu
00:00:00.000 : en:00:00:00.000
00:10:39.693 : en:00:10:39.681
00:17:29.644 : en:00:17:29.632
00:30:38.223 : en:00:30:38.211
00:47:43.539 : en:00:47:43.527
01:12:32.610 : en:01:12:32.598
01:20:21.746 : en:01:20:21.734
01:36:48.481 : en:01:36:48.469
Скріншоти



За українську доріжку подяка п. MAKAPOHHIK та Neo777
Джерело: &
Особиста оцінка: 0 - не дивився


Срібний реліз (на рейтинг впливає 50% завантаженого)
 Трекер:    Зареєстрований   

Завантажити / скачати фільм українською



відео для новачків



 Зареєстрований:   2018-08-10 09:40
 Розмір:   7.22 GB 
 Оцінка фільму:   6.3/10 (Голосів: 6)
   
Інші релізи
waldi-hurtom 
VIP


З нами з: 07.10.12
Востаннє: 20.04.19
Повідомлень: 953

2018-08-17 19:21  
1 з 10. Єдиний прикольний момент - менует під клюбне музло. Плюс гарне личко королеви ельфів. Решта - відстій.
Nikko033 
VIP


З нами з: 31.12.12
Востаннє: 18.04.19
Повідомлень: 522

2019-02-06 21:18  
абсолютно ніякий фільм. шкода, що такий хороший саундтрек попав сюди 5,5/10
Ваш часовий пояс: GMT + 2 Години

Нова тема   Відповісти