Прихована загроза / Domestic Disturbance (2001) 720p 2xUkr/Eng | Sub Eng

Нові коментарі

Нова тема   Відповісти
Автор Повідомлення
Anonymous 







2018-08-10 07:32  
Прихована загроза / Domestic Disturbance (2001) 720p 2xUkr/Eng | Sub Eng

Прихована загроза / Domestic Disturbance (2001) 720p 2xUkr/Eng | Sub Eng


Жанр: трилер
Країна: США



Кінокомпанія: Paramount Pictures, De Line Pictures, Jonathan Krane Group
Режисер: Гарольд Беккер / Harold Becker
Актори: Джон Траволта / John Travolta, Джеймс Лейшлі / James Lashly, Ребекка Тілні / Rebecca Tilney, Дебра Муні / Debra Mooney та інші

Сюжет:
Френк Моррісон більше не живе зі своєю колишньою дружиною Сьюзан і сином Денні, у якого тепер є вітчим, відомий промисловець Рік Барнс. Незважаючи на всі спроби Ріка подружитися з Денні, їхні стосунки не клеяться. Незабаром Денні випадково стає свідком страшних подій: його вітчим холоднокровно вбиває і знищує труп дивного незнайомця, що недавно з'явився в місті.
Денні все розповідає поліції, але підліткові, відомому своїми фантазіями і брехнею, не вірить ніхто, крім його рідного батька, який з ризиком для життя починає копатися в темному минулому багатого і лукавого чудовиська в людській подобі. Поступово Барнс втрачає самоконтроль, але чи зможе Френк вивести на чисту воду жорстокого шахрая і вбивцю, який живе під одним дахом з його рідним сином?


Тривалість: 01:29:10
Якість: 720p
Відео:
кодек:
розмір кадру: 1280х720
бітрейт: 4 119 кб/с

Аудіо # 1:
мова: українська
переклад: двоголосий закадровий
кодек: 2.0
бітрейт: 192 кб/с

Аудіо # 2:
мова: українська
переклад: багатоголосий закадровий ,
кодек: 2.0
бітрейт: 192 кб/с

Аудіо # 3:
мова: англійська
переклад: оригінал
кодек: 5.1
бітрейт: 640 кб/с

Субтитри:
мова: англійська
тип: програмні (м'які)
формат: *.srt
Info
General
Unique ID : 175118634924871367181281455613638816251 (0x83BE9F4DE2ED1F7E987A3B15D70F31FB)
Format :
Format version : Version 4 / Version 2
File size : 3.27 GiB
Duration : 1 h 29 min
Overall bit rate mode : Variable
Overall bit rate : 5 247 kb/s
Movie name : Domestic Disturbance (2001)
Encoded date : UTC 2018-08-10 04:23:06
Writing application : v6.1.0 ('Old Devil') built on Mar 4 2013 09:10:42
Writing library : libebml v1.3.0 + v1.4.0

Video
ID : 1
Format : AVC
Format/Info : Advanced Video Codec
Format profile : [email protected]
Format settings : CABAC / 5 Ref Frames
Format settings, CABAC : Yes
Format settings, ReFrames : 5 frames
Codec ID : V_MPEG4/ISO/AVC
Duration : 1 h 29 min
Bit rate mode : Variable
Bit rate : 4 119 kb/s
Maximum bit rate : 4 500 kb/s
Width : 1 280 pixels
Height : 720 pixels
Display aspect ratio : 16:9
Frame rate mode : Constant
Frame rate : 23.976 (24000/1001) FPS
Color space : YUV
Chroma subsampling : 4:2:0
Bit depth : 8 bits
Scan type : Progressive
Bits/(Pixel*Frame) : 0.186
Stream size : 2.57 GiB (78%)
Title : Domestic Disturbance (2001)
Language : English
Default : Yes
Forced : No
Color range : Limited
Color primaries : BT.709
Transfer characteristics : BT.709
Matrix coefficients : BT.709

Audio #1
ID : 2
Format : AC-3
Format/Info : Audio Coding 3
Codec ID : A_AC3
Duration : 1 h 29 min
Bit rate mode : Constant
Bit rate : 192 kb/s
Channel(s) : 2 channels
Channel positions : Front: L R
Sampling rate : 48.0 kHz
Frame rate : 31.250 FPS (1536 SPF)
Bit depth : 16 bits
Compression mode : Lossy
Stream size : 122 MiB (4%)
Title : , 2 ch, 192 Kbps, Українська, DVO, '2+2'
Language : Ukrainian
Service kind : Complete Main
Default : Yes
Forced : Yes

Audio #2
ID : 3
Format : AC-3
Format/Info : Audio Coding 3
Codec ID : A_AC3
Duration : 1 h 29 min
Bit rate mode : Constant
Bit rate : 192 kb/s
Channel(s) : 2 channels
Channel positions : Front: L R
Sampling rate : 48.0 kHz
Frame rate : 31.250 FPS (1536 SPF)
Bit depth : 16 bits
Compression mode : Lossy
Stream size : 122 MiB (4%)
Title : , 2 ch, 192 Kbps, Українська, MVO, 'Новий'
Language : Ukrainian
Service kind : Complete Main
Default : No
Forced : No

Audio #3
ID : 4
Format : AC-3
Format/Info : Audio Coding 3
Codec ID : A_AC3
Duration : 1 h 29 min
Bit rate mode : Constant
Bit rate : 640 kb/s
Channel(s) : 6 channels
Channel positions : Front: L C R, Side: L R, LFE
Sampling rate : 48.0 kHz
Frame rate : 31.250 FPS (1536 SPF)
Bit depth : 16 bits
Compression mode : Lossy
Stream size : 408 MiB (12%)
Title : , 6 ch, 640 Kbps, Original
Language : English
Service kind : Complete Main
Default : No
Forced : No

Text
ID : 5
Format : UTF-8
Codec ID : S_TEXT/UTF8
Codec ID/Info : UTF-8 Plain Text
Language : English
Default : No
Forced : No
Скріншоти








За українські доріжки подяка п.: POMEO, dvorsky, taraskill1
Особиста подяка пану denixx за надану матеріальну допомогу на підтримку цього і майбутніх релізів.
Джерело:


Срібний реліз (на рейтинг впливає 50% завантаженого)
 Трекер:    Зареєстрований   

Завантажити / скачати фільм українською



відео для новачків



 Зареєстрований:   2018-08-10 07:32
 Розмір:   3.27 GB 
 Оцінка фільму:   10/10 (Голосів: 2)
   
Інші релізи
Ваш часовий пояс: GMT + 2 Години

Нова тема   Відповісти