Шерлок Гномс / Sherlock Gnomes (2018) 1080p Ukr/Eng | Sub Ukr/Eng

Нові коментарі

Нова тема   Відповісти
Автор Повідомлення
staf777 
Відео Гуртом - підтримка та поширення
Відео Гуртом - підтримка та поширення


З нами з: 16.11.16
Востаннє: 03.03.21
Повідомлень: 5071

2018-08-09 21:59  
Шерлок Гномс / Sherlock Gnomes (2018) 1080p Ukr/Eng | Sub Ukr/Eng

Усі українські постери:






















Жанр: детектив, комедія, мелодрама, мультфільм, пригоди, сімейний, фентезі
Країна: Велика Британія, США



Кінокомпанія: Metro-Goldwyn-Mayer (MGM), Paramount Pictures, Rocket Pictures
Режисер: Джон Стівенсон
Актори: Джеймс Макевой, Емілі Блант, Джонні Депп, Чіветел Еджиофор, Мері Джей Блайдж, Майкл Кейн, Джемі Деметріу, Меггі Сміт, Ешлі Дженсен, Метт Лукас

Сюжет:
Гномео та Джульєтта переїжджають до Лондона. Ох, скільки всього нового їх чекає, скільки пригод і відкриттів. Весна вже зовсім близько, тому всі садові гноми готуються до неї як можуть. Але по величезному мегаполісі проходить серія викрадень їхніх побратимів. Тепер кожен садовий гном боїться за свою цілісність, адже забрати можуть і його. І сталося найстрашніше – викрали всіх друзів Гномео і Джульєтти, тільки цю любовну парочку пронесло. Шукати зниклих гномів готовий найкращий сищик на Землі – Шерлок Гномс. Він разом зі своїм постійним супутником Ватсоном зробить усе можливе, щоб урятувати існування садових гномів.


Тривалість: 01:27:08
Якість: 1080p
Відео:
кодек:
розмір кадру: 1920x804
бітрейт: 10,5 Mб/с

Аудіо # 1:
мова: українська
переклад: професійний дубльований
кодек: 2.0
бітрейт: 192 кб/с

Аудіо # 2:
мова: англійська
переклад: оригінал
кодек: 5.1
бітрейт: 1509 кб/с

Субтитри:
мова: українська
тип: програмні (м'які)
формат: *.srt

Субтитри:
мова: англійська
тип: програмні (м'які)
формат: *.srt
Info
General
Unique ID : 275110660105875337987847353986582963621 (0xCEF862C5DF85C16C96C1F5AFFB75E5A5)
Complete name : I:\Sherlock Gnomes (2018) 1080p [UKR_ENG] [Hurtom].
Format :
Format version : Version 4 / Version 2
File size : 7.33 GiB
Duration : 1 h 26 min
Overall bit rate : 12.2 Mb/s
Movie name : Sherlock Gnomes (2018) 1080p [UKR_ENG] [Hurtom]
Encoded date : UTC 2018-08-10 20:39:36
Writing application : v24.0.0 ('Beyond The Pale') 64-bit
Writing library : libebml v1.3.6 + v1.4.9
Cover : Yes
Attachments : cover.jpg

Video
ID : 1
Format : AVC
Format/Info : Advanced Video Codec
Format profile : [email protected]
Format settings : CABAC / 5 Ref Frames
Format settings, CABAC : Yes
Format settings, ReFrames : 5 frames
Codec ID : V_MPEG4/ISO/AVC
Duration : 1 h 26 min
Bit rate : 10.5 Mb/s
Width : 1 920 pixels
Height : 804 pixels
Display aspect ratio : 2.40:1
Frame rate mode : Constant
Frame rate : 23.976 (24000/1001) FPS
Color space : YUV
Chroma subsampling : 4:2:0
Bit depth : 8 bits
Scan type : Progressive
Bits/(Pixel*Frame) : 0.282
Stream size : 6.30 GiB (86%)
Writing library : core 142 r2431+42 c69a006 tMod [[email protected]:2:0 X86_64]
Encoding settings : cabac=1 / ref=5 / deblock=1:-3:-3 / analyse=0x3:0x113 / me=umh / subme=10 / psy=1 / fade_compensate=0.00 / psy_rd=1.00:0.05 / mixed_ref=1 / me_range=48 / chroma_me=1 / trellis=2 / 8x8dct=1 / cqm=0 / deadzone=21,11 / fast_pskip=0 / chroma_qp_offset=-2 / threads=48 / lookahead_threads=6 / sliced_threads=0 / nr=0 / decimate=1 / interlaced=0 / bluray_compat=0 / constrained_intra=0 / fgo=0 / bframes=8 / b_pyramid=2 / b_adapt=2 / b_bias=0 / direct=3 / weightb=1 / open_gop=0 / weightp=2 / keyint=250 / keyint_min=23 / scenecut=40 / intra_refresh=0 / rc_lookahead=40 / rc=crf / mbtree=0 / crf=15.6000 / qcomp=0.60 / qpmin=0:0:0 / qpmax=69:69:69 / qpstep=4 / vbv_maxrate=40000 / vbv_bufsize=30000 / crf_max=0.0 / nal_hrd=none / filler=0 / ip_ratio=1.40 / pb_ratio=1.30 / aq=3:0.80 / aq-sensitivity=10.00 / aq-factor=1.00:1.00:1.00 / aq2=0 / aq3=0
Language : English
Default : Yes
Forced : No
Color range : Limited
Matrix coefficients : BT.709

Audio #1
ID : 2
Format : AC-3
Format/Info : Audio Coding 3
Codec ID : A_AC3
Duration : 1 h 26 min
Bit rate mode : Constant
Bit rate : 192 kb/s
Channel(s) : 2 channels
Channel positions : Front: L R
Sampling rate : 48.0 kHz
Frame rate : 31.250 FPS (1536 SPF)
Bit depth : 16 bits
Compression mode : Lossy
Stream size : 119 MiB (2%)
Title : [UA-DUB]
Language : Ukrainian
Service kind : Complete Main
Default : Yes
Forced : Yes

Audio #2
ID : 3
Format :
Format/Info : Digital Theater Systems
Codec ID : A_DTS
Duration : 1 h 26 min
Bit rate mode : Constant
Bit rate : 1 509 kb/s
Channel(s) : 6 channels
Channel positions : Front: L C R, Side: L R, LFE
Sampling rate : 48.0 kHz
Frame rate : 93.750 FPS (512 SPF)
Bit depth : 24 bits
Compression mode : Lossy
Stream size : 932 MiB (12%)
Title : Original
Language : English
Default : No
Forced : No

Text #1
ID : 4
Format : UTF-8
Codec ID : S_TEXT/UTF8
Codec ID/Info : UTF-8 Plain Text
Duration : 1 h 13 min
Bit rate : 0 b/s
Count of elements : 9
Stream size : 151 Bytes (0%)
Language : Ukrainian
Default : Yes
Forced : Yes

Text #2
ID : 5
Format : UTF-8
Codec ID : S_TEXT/UTF8
Codec ID/Info : UTF-8 Plain Text
Duration : 1 h 25 min
Bit rate : 93 b/s
Count of elements : 1129
Stream size : 58.3 KiB (0%)
Language : Ukrainian
Default : No
Forced : No

Text #3
ID : 6
Format : UTF-8
Codec ID : S_TEXT/UTF8
Codec ID/Info : UTF-8 Plain Text
Duration : 1 h 24 min
Bit rate : 66 b/s
Count of elements : 1182
Stream size : 41.4 KiB (0%)
Title : Full
Language : English
Default : No
Forced : No

Menu
00:00:00.000 : en:00:00:00.000
00:05:36.127 : en:00:05:36.127
00:10:50.650 : en:00:10:50.650
00:16:40.166 : en:00:16:40.166
00:24:05.944 : en:00:24:05.944
00:29:44.074 : en:00:29:44.074
00:35:39.512 : en:00:35:39.512
00:40:52.909 : en:00:40:52.909
00:45:41.530 : en:00:45:41.530
00:52:31.982 : en:00:52:31.982
00:58:29.756 : en:00:58:29.756
01:04:58.520 : en:01:04:58.520
01:10:40.069 : en:01:10:40.069
01:16:03.058 : en:01:16:03.058
01:17:55.212 : en:01:17:55.212
Скріншоти




Підтримати купівлю інших фільмів можна тут.

Подяка пану AngryBirdsUA за доріжку.
За допомогу в створені реліза дякую пану 11FrYkT
Джерело: &
Особиста оцінка: 0 - не дивився


 Трекер:    Зареєстрований   

Завантажити / скачати мультфільм українською



відео для новачків



 Зареєстрований:   2018-08-10 23:01
 Розмір:   7.33 GB 
 Оцінка мультфільму:   8.9/10 (Голосів: 16)
   
Electroz 
Відео Гуртом - підтримка та поширення
Відео Гуртом - підтримка та поширення


З нами з: 18.09.14
Востаннє: 03.03.21
Повідомлень: 4332

2018-08-09 22:25  
Для чого ти відправив попередній анонс в смітник? Потрібно було його редагувати. https://toloka.to/t93597

Додано через 1 хвилину 30 секунд:

Konfucius написано:
Прошу НІКОЛИ не переносити анонс у смітник. Замість того, щоб створювати нову тему, перенесіть його у відповідний розділ і додайте торрент.

Причина проста - Google проіндексує анонс, і, якщо він опиниться у смітнику, люди не зможуть з пошуку потрапити на ваш реліз.

Посилання на перенесення знаходиться зліва внизу сторінки.

bot 
робот


З нами з: 30.09.07
Востаннє: 26.05.05
Повідомлень: 27292

2018-08-10 07:47  
Тему перенесено з Анонси релізів до форуму Мультфільми в HD


staf777

Ваш часовий пояс: GMT + 2 Години

Нова тема   Відповісти