Шерлок Гномс / Sherlock Gnomes (2018) Remux 1080p Ukr/Eng | Sub Ukr/Eng

Нові коментарі

Нова тема   Відповісти
Автор Повідомлення
staf777 
Попереджень: 1
Попереджень: 1 


З нами з: 16.11.16
Востаннє: 14.12.18
Повідомлень: 1915

2018-08-09 21:54  
Шерлок Гномс / Sherlock Gnomes (2018) Remux 1080p Ukr/Eng | Sub Ukr/Eng

Шерлок Гномс / Sherlock Gnomes (2018) Remux 1080p Ukr/Eng | Sub Ukr/Eng


Жанр: детектив, комедія, мелодрама, мультфільм, пригоди, сімейний, фентезі
Країна: Велика Британія, США



Кінокомпанія: Metro-Goldwyn-Mayer (MGM), Paramount Pictures, Rocket Pictures
Режисер: Джон Стівенсон
Актори: Джеймс Макевой, Емілі Блант, Джонні Депп, Чіветел Еджиофор, Мері Джей Блайдж, Майкл Кейн, Джемі Деметріу, Меггі Сміт, Ешлі Дженсен, Метт Лукас

Сюжет:
Гномео та Джульєтта переїжджають до Лондона. Ох, скільки всього нового їх чекає, скільки пригод і відкриттів. Весна вже зовсім близько, тому всі садові гноми готуються до неї як можуть. Але по величезному мегаполісі проходить серія викрадень їхніх побратимів. Тепер кожен садовий гном боїться за свою цілісність, адже забрати можуть і його. І сталося найстрашніше – викрали всіх друзів Гномео і Джульєтти, тільки цю любовну парочку пронесло. Шукати зниклих гномів готовий найкращий сищик на Землі – Шерлок Гномс. Він разом зі своїм постійним супутником Ватсоном зробить усе можливе, щоб урятувати існування садових гномів.


Тривалість: 01:26:19
Якість: Remux 1080p
Відео:
кодек:
розмір кадру: 1920 х 1080
бітрейт: 28.7 Mб/с

Аудіо # 1:
мова: українська
переклад: професійний дубльований
кодек: 2.0
бітрейт: 192 кб/с

Аудіо # 2:
мова: англійська
переклад: оригінал
кодек: HD MA 7.1
бітрейт: 5095 кб/с

Субтитри #1-2: (Forced, Full)
мова: українська
тип: програмні (м'які)
формат: *.srt

Субтитри #3-4:
мова: англійська
тип: пререндерні
формат: *.pgs
Info
General
Unique ID : 200391780148490992616945677451812680440 (0x96C20D91637C6E2DEC6250388A0432F8)
Complete name : G:\Sherlock Gnomes (2018) Remux 1080p [UKR_ENG] [Hurtom].
Format :
Format version : Version 4 / Version 2
File size : 20.5 GiB
Duration : 1 h 26 min
Overall bit rate mode : Variable
Overall bit rate : 34.1 Mb/s
Movie name : Sherlock Gnomes (2018) Remux 1080p [UKR_ENG] [Hurtom]
Encoded date : UTC 2018-08-10 04:37:24
Writing application : v24.0.0 ('Beyond The Pale') 64-bit
Writing library : libebml v1.3.6 + v1.4.9
Cover : Yes
Attachments : cover.jpg

Video
ID : 1
Format : AVC
Format/Info : Advanced Video Codec
Format profile : [email protected]
Format settings : CABAC / 4 Ref Frames
Format settings, CABAC : Yes
Format settings, ReFrames : 4 frames
Codec ID : V_MPEG4/ISO/AVC
Duration : 1 h 26 min
Bit rate mode : Variable
Bit rate : 28.7 Mb/s
Maximum bit rate : 32.6 Mb/s
Width : 1 920 pixels
Height : 1 080 pixels
Display aspect ratio : 16:9
Frame rate mode : Constant
Frame rate : 23.976 (24000/1001) FPS
Color space : YUV
Chroma subsampling : 4:2:0
Bit depth : 8 bits
Scan type : Progressive
Bits/(Pixel*Frame) : 0.578
Stream size : 17.3 GiB (84%)
Title : Sherlock.Gnomes.2018.1080p.BluRay.REMUX.AVC.-HD.MA.7.1-FGT
Language : English
Default : No
Forced : No

Audio #1
ID : 2
Format : AC-3
Format/Info : Audio Coding 3
Codec ID : A_AC3
Duration : 1 h 26 min
Bit rate mode : Constant
Bit rate : 192 kb/s
Channel(s) : 2 channels
Channel positions : Front: L R
Sampling rate : 48.0 kHz
Frame rate : 31.250 FPS (1536 SPF)
Bit depth : 16 bits
Compression mode : Lossy
Stream size : 119 MiB (1%)
Title : [UA-DUB]
Language : Ukrainian
Service kind : Complete Main
Default : Yes
Forced : Yes

Audio #2
ID : 3
Format :
Format/Info : Digital Theater Systems
Format profile : MA / Core
Codec ID : A_DTS
Duration : 1 h 26 min
Bit rate mode : Variable / Constant
Bit rate : 5 095 kb/s / 1 509 kb/s
Channel(s) : 8 channels / 6 channels
Channel positions : Front: L C R, Side: L R, Back: L R, LFE / Front: L C R, Side: L R, LFE
Sampling rate : 48.0 kHz
Frame rate : 93.750 FPS (512 SPF)
Bit depth : 24 bits
Compression mode : Lossless / Lossy
Stream size : 3.07 GiB (15%)
Title : Sherlock.Gnomes.2018.1080p.BluRay.REMUX.AVC.-HD.MA.7.1-FGT
Language : English
Default : No
Forced : No

Text #1
ID : 4
Format : UTF-8
Codec ID : S_TEXT/UTF8
Codec ID/Info : UTF-8 Plain Text
Duration : 1 h 13 min
Bit rate : 0 b/s
Count of elements : 9
Stream size : 151 Bytes (0%)
Language : Ukrainian
Default : Yes
Forced : Yes

Text #2
ID : 5
Format : UTF-8
Codec ID : S_TEXT/UTF8
Codec ID/Info : UTF-8 Plain Text
Duration : 1 h 25 min
Bit rate : 93 b/s
Count of elements : 1129
Stream size : 58.3 KiB (0%)
Language : Ukrainian
Default : No
Forced : No

Text #3
ID : 6
Format : PGS
Muxing mode : zlib
Codec ID : S_HDMV/PGS
Codec ID/Info : Picture based subtitle format used on BDs/HD-DVDs
Duration : 1 h 24 min
Bit rate : 47.3 kb/s
Count of elements : 2255
Stream size : 28.8 MiB (0%)
Title : English-PGS
Language : English
Default : No
Forced : No

Text #4
ID : 7
Format : PGS
Muxing mode : zlib
Codec ID : S_HDMV/PGS
Codec ID/Info : Picture based subtitle format used on BDs/HD-DVDs
Duration : 1 h 10 min
Bit rate : 199 b/s
Count of elements : 13
Stream size : 104 KiB (0%)
Title : English-SDH-PGS
Language : English
Default : No
Forced : No

Menu
00:00:00.000 : en:Chapter 01
00:05:36.127 : en:Chapter 02
00:10:50.691 : en:Chapter 03
00:16:40.624 : en:Chapter 04
00:24:05.944 : en:Chapter 05
00:29:44.073 : en:Chapter 06
00:35:39.512 : en:Chapter 07
00:40:52.908 : en:Chapter 08
00:45:41.530 : en:Chapter 09
00:52:31.982 : en:Chapter 10
00:58:29.797 : en:Chapter 11
01:04:58.519 : en:Chapter 12
01:10:40.069 : en:Chapter 13
01:16:02.933 : en:Chapter 14
01:17:55.170 : en:Chapter 15
Скріншоти




Підтримати купівлю інших фільмів можна тут.

Подяка пану AngryBirdsUA за доріжку.
За допомогу в створені реліза дякую пану 11FrYkT
Джерело: &
Особиста оцінка: 0 - не дивився


Золотий реліз (завантажене не впливає на рейтинг)
 Трекер:    Зареєстрований   

Завантажити / скачати мультфільм українською



відео для новачків



 Зареєстрований:   2018-08-10 07:26
 Розмір:   20.53 GB 
 Оцінка мультфільму:   10/10 (Голосів: 5)
   
Інші релізи
bot 
робот


З нами з: 30.09.07
Востаннє: 26.05.05
Повідомлень: 20341

2018-08-10 07:26  
Тему перенесено з Анонси релізів до форуму Мультфільми в HD


staf777

Ваш часовий пояс: GMT + 2 Години

Нова тема   Відповісти