Корпорація «Святі мотори» / Holy Motors (2012) 1080p Ukr/Fra

Нові коментарі

Нова тема   Відповісти
Автор Повідомлення
staf777 
Попереджень: 1
Попереджень: 1 


З нами з: 16.11.16
Востаннє: 19.12.18
Повідомлень: 1940

2018-08-09 21:20  
Корпорація «Святі мотори» / Holy Motors (2012) 1080p Ukr/Fra

Корпорація «Святі мотори» / Holy Motors (2012) 1080p Ukr/Fra


Жанр: драма, фентезі
Країна: Франція, Німеччина



Кінокомпанія: Pierre Grise Productions, Théo Films, Pandora Filmproduktion
Режисер: Леос Каракс / Leos Carax
Актори: Дені Лаван / Denis Lavant, Едіт Скоб / Edith Scob, Єва Мендес / Eva Mendes, Кайлі Міноуґ / Kylie Minogue, Мішель Пікколі / Michel Piccoli, Жанна Діссон / Jeanne Disson та інші

Сюжет:
Невідома істота переміщується з життя у життя. Приймає форму то чоловіка, то жінки, то юнака, то старого. Він може виявитися жебраком або казковим багатієм, шахраєм або порядним сім'янином. Героя фільму кидатиме по чужих життях, він обійматиме чужих дружин і дітей, вбиватиме чужих ворогів. Однак сам він смертельно самотній. Де його будинок, його близькі, що він таке насправді?


Тривалість: 01:55:30
Якість: 1080p
Відео:
кодек:
розмір кадру: 1920x1036
бітрейт: 13.5 Mб/с

Аудіо # 1:
мова: українська
переклад: багатоголосий закадровий
кодек: 2.0
бітрейт: 192 кб/с

Аудіо # 2:
мова: французька
переклад: оригінал
кодек: 5.1
бітрейт: 1509 кб/с

Джерело озвучення:
Info

General
Unique ID : 104213304465153640188057315225549410084 (0x4E66C09B24ACF6544CC98724F9880F24)
Complete name : G:\Фентезі\Holy Motors (2012) 1080p [UA][FRA][Hurtom].
Format :
Format version : Version 4 / Version 2
File size : 12.3 GiB
Duration : 1 h 55 min
Overall bit rate : 15.2 Mb/s
Movie name : Holy Motors (2012) 1080p [UA][FRA][Hurtom]
Encoded date : UTC 2018-08-10 07:52:09
Writing application : v24.0.0 ('Beyond The Pale') 64-bit
Writing library : libebml v1.3.6 + v1.4.9
Cover : Yes
Attachments : cover.jpg

Video
ID : 1
Format : AVC
Format/Info : Advanced Video Codec
Format profile : [email protected]
Format settings : CABAC / 4 Ref Frames
Format settings, CABAC : Yes
Format settings, ReFrames : 4 frames
Codec ID : V_MPEG4/ISO/AVC
Duration : 1 h 55 min
Bit rate : 13.5 Mb/s
Width : 1 920 pixels
Height : 1 036 pixels
Display aspect ratio : 1.85:1
Frame rate mode : Constant
Frame rate : 24.000 FPS
Color space : YUV
Chroma subsampling : 4:2:0
Bit depth : 8 bits
Scan type : Progressive
Bits/(Pixel*Frame) : 0.284
Stream size : 10.9 GiB (89%)
Writing library : core 146 r2538 121396c
Encoding settings : cabac=1 / ref=4 / deblock=1:-3:-2 / analyse=0x3:0x113 / me=umh / subme=11 / psy=1 / psy_rd=1.00:0.15 / mixed_ref=1 / me_range=32 / chroma_me=1 / trellis=2 / 8x8dct=1 / cqm=0 / deadzone=21,11 / fast_pskip=0 / chroma_qp_offset=-3 / threads=6 / lookahead_threads=1 / sliced_threads=0 / nr=0 / decimate=1 / interlaced=0 / bluray_compat=0 / constrained_intra=0 / bframes=8 / b_pyramid=2 / b_adapt=2 / b_bias=0 / direct=1 / weightb=1 / open_gop=0 / weightp=2 / keyint=230 / keyint_min=23 / scenecut=40 / intra_refresh=0 / rc_lookahead=40 / rc=crf / mbtree=0 / crf=17.2 / qcomp=0.60 / qpmin=0 / qpmax=69 / qpstep=4 / vbv_maxrate=62500 / vbv_bufsize=78125 / crf_max=0.0 / nal_hrd=none / filler=0 / ip_ratio=1.40 / pb_ratio=1.30 / aq=1:1.00
Language : French
Default : Yes
Forced : No

Audio #1
ID : 2
Format : AC-3
Format/Info : Audio Coding 3
Codec ID : A_AC3
Duration : 1 h 55 min
Bit rate mode : Constant
Bit rate : 192 kb/s
Channel(s) : 2 channels
Channel positions : Front: L R
Sampling rate : 48.0 kHz
Frame rate : 31.250 FPS (1536 SPF)
Bit depth : 16 bits
Compression mode : Lossy
Stream size : 159 MiB (1%)
Title : НЛО
Language : Ukrainian
Service kind : Complete Main
Default : Yes
Forced : Yes

Audio #2
ID : 3
Format :
Format/Info : Digital Theater Systems
Codec ID : A_DTS
Duration : 1 h 55 min
Bit rate mode : Constant
Bit rate : 1 509 kb/s
Channel(s) : 6 channels
Channel positions : Front: L C R, Side: L R, LFE
Sampling rate : 48.0 kHz
Frame rate : 93.750 FPS (512 SPF)
Bit depth : 16 bits
Compression mode : Lossy
Stream size : 1.22 GiB (10%)
Title : original
Language : French
Default : No
Forced : No

Menu
00:00:00.000 : :Chapter 01
00:09:53.790 : :Chapter 02
00:18:45.708 : :Chapter 03
00:31:17.833 : :Chapter 04
00:41:49.708 : :Chapter 05
00:52:06.041 : :Chapter 06
01:02:09.833 : :Chapter 07
01:11:20.916 : :Chapter 08
01:22:57.416 : :Chapter 09
01:32:01.541 : :Chapter 10
01:42:51.833 : :Chapter 11
01:50:48.500 : :Chapter 12
Скріншоти



За запис з ТБ подяка п. Sando7 та п. POMEO, за синхронізацію - п. patriot2305
Джерело: &
Особиста оцінка: 6





 Трекер:    Зареєстрований   

Завантажити / скачати фільм українською



відео для новачків



 Зареєстрований:   2018-08-10 17:18
 Розмір:   12.3 GB 
 Оцінка фільму:   5.5/10 (Голосів: 2)
   
ukr_anonymous 
Попереджень: 1
Попереджень: 1 


З нами з: 16.04.18
Востаннє: 16.12.18
Повідомлень: 231

2018-08-09 21:48  
Ого, невже. Несподівано)
bot 
робот


З нами з: 30.09.07
Востаннє: 26.05.05
Повідомлень: 20375

2018-08-10 17:18  
Тему перенесено з Анонси релізів до форуму Фільми в HD


staf777

foxlazy 
Новенький


З нами з: 17.11.16
Востаннє: 18.12.18
Повідомлень: 2

2018-10-09 00:16  
Стрічку можна було б віднести до артхаусу, Але.... фільм ні про що. автор не напрягався. нехай глядачі самі усе додумають Не вірте синопсису, то не правда.
Ваш часовий пояс: GMT + 2 Години

Нова тема   Відповісти