Шерлок Гномс / Sherlock Gnomes (2018) 1080p H.265 Ukr/Eng | Sub Ukr/Eng/Fre/Ger

Нові коментарі

Нова тема   Відповісти
Автор Повідомлення
Anonymous 







2018-08-09 20:36  
Шерлок Гномс / Sherlock Gnomes (2018) 1080p H.265 Ukr/Eng | Sub Ukr/Eng/Fre/Ger

Шерлок Гномс / Sherlock Gnomes (2018) 1080p H.265 Ukr/Eng | Sub Ukr/Eng/Fre/Ger


Жанр: детектив, комедія, мелодрама, мультфільм, пригоди, сімейний, фентезі
Країна: Велика Британія, США



Кінокомпанія: Metro-Goldwyn-Mayer (MGM), Paramount Pictures, Rocket Pictures
Режисер: Джон Стівенсон
Актори: Джеймс Макевой, Емілі Блант, Джонні Депп, Чіветел Еджиофор, Мері Джей Блайдж, Майкл Кейн, Джемі Деметріу, Меггі Сміт, Ешлі Дженсен, Метт Лукас

Сюжет:
Гномео та Джульєтта переїжджають до Лондона. Ох, скільки всього нового їх чекає, скільки пригод і відкриттів. Весна вже зовсім близько, тому всі садові гноми готуються до неї як можуть. Але по величезному мегаполісі проходить серія викрадень їхніх побратимів. Тепер кожен садовий гном боїться за свою цілісність, адже забрати можуть і його. І сталося найстрашніше – викрали всіх друзів Гномео і Джульєтти, тільки цю любовну парочку пронесло. Шукати зниклих гномів готовий найкращий сищик на Землі – Шерлок Гномс. Він разом зі своїм постійним супутником Ватсоном зробить усе можливе, щоб урятувати існування садових гномів.


Тривалість: 01:26:18
Якість:
Відео:
кодек: H.265 (HEVC)
розмір кадру: 1920 х 804
бітрейт: 3 785 кб/с
бітова глибина: 10 біт
Увага! Перед завантаженням переконайтесь, що ваш пристрій відтворення (та/або ПЗ) підтримує H.265 (HEVC)

Аудіо # 1:
мова: українська
переклад: професійний дубльований
кодек: 2.0
бітрейт: 192 кб/с

Аудіо # 2:
мова: англійська
переклад: оригінал
кодек: 5.1
бітрейт: 448 кб/с

Субтитри # 1-2:
мова: українська
тип: програмні (м'які)
формат: *.srt

Субтитри # 3-4:
мова: англійська
тип: програмні (м'які)
формат: *.srt

Субтитри # 5:
мова: французька
тип: програмні (м'які)
формат: .VobSub

Субтитри # 6:
мова: німецька
тип: програмні (м'які)
формат: .VobSub
Info
Код:
General
Unique ID                                : 69094610503382919974136434025728783293 (0x33FB234FCD2D24C3741C9E49ABAF33BD)
Complete name                            : F:\Video\Sherlock Gnomes (2018) 1080p H.265 [UKR_ENG].
Format                                   :
Format version                           : Version 4 / Version 2
File size                                : 2.68 GiB
Duration                                 : 1 h 26 min
Overall bit rate                         : 4 441 kb/s
Movie name                               : Sherlock Gnomes (2018)
Encoded date                             : UTC 2018-08-09 18:26:35
Writing application                      : v20.0.0 ('I Am The Sun') 32-bit
Writing library                          : libebml v1.3.5 + v1.4.8
Cover                                    : Yes
Attachments                              : cover

Video
ID                                       : 1
Format                                   : HEVC
Format/Info                              : High Efficiency Video Coding
Format profile                           : Main [email protected]@Main
Codec ID                                 : V_MPEGH/ISO/HEVC
Duration                                 : 1 h 26 min
Bit rate                                 : 3 785 kb/s
Width                                    : 1 920 pixels
Height                                   : 804 pixels
Display aspect ratio                     : 2.40:1
Frame rate mode                          : Constant
Frame rate                               : 23.976 (24000/1001) FPS
Color space                              : YUV
Chroma subsampling                       : 4:2:0
Bit depth                                : 10 bits
Bits/(Pixel*Frame)                       : 0.102
Stream size                              : 2.28 GiB (85%)
Writing library                          : x265 2.8+1-478bfe2b7673:[Windows][GCC 7.3.0][64 bit] 10bit
Encoding settings                        : cpuid=1111039 / frame-threads=3 / numa-pools=8 / wpp / no-pmode / no-pme / no-psnr / no-ssim / log-level=2 / input-csp=1 / input-res=1920x804 / interlace=0 / total-frames=124165 / level-idc=0 / high-tier=1 / uhd-bd=0 / ref=4 / no-allow-non-conformance / no-repeat-headers / annexb / no-aud / no-hrd / info / hash=0 / no-temporal-layers / open-gop / min-keyint=23 / keyint=250 / gop-lookahead=0 / bframes=4 / b-adapt=2 / b-pyramid / bframe-bias=0 / rc-lookahead=25 / lookahead-slices=4 / scenecut=40 / radl=0 / no-intra-refresh / ctu=64 / min-cu-size=8 / rect / no-amp / max-tu-size=32 / tu-inter-depth=1 / tu-intra-depth=1 / limit-tu=0 / rdoq-level=2 / dynamic-rd=0.00 / no-ssim-rd / signhide / no-tskip / nr-intra=0 / nr-inter=0 / no-constrained-intra / strong-intra-smoothing / max-merge=3 / limit-refs=3 / limit-modes / me=3 / subme=3 / merange=57 / temporal-mvp / weightp / no-weightb / no-analyze-src-pics / deblock=0:0 / sao / no-sao-non-deblock / rd=4 / no-early-skip / rskip / no-fast-intra / no-tskip-fast / no-cu-lossless / no-b-intra / no-splitrd-skip / rdpenalty=0 / psy-rd=2.00 / psy-rdoq=1.00 / no-rd-refine / no-lossless / cbqpoffs=0 / crqpoffs=0 / rc=crf / crf=18.0 / qcomp=0.60 / qpstep=4 / stats-write=0 / stats-read=0 / ipratio=1.40 / pbratio=1.30 / aq-mode=2 / aq-strength=1.00 / cutree / zone-count=0 / no-strict-cbr / qg-size=32 / no-rc-grain / qpmax=69 / qpmin=0 / no-const-vbv / sar=0 / overscan=0 / videoformat=5 / range=0 / colorprim=2 / transfer=2 / colormatrix=2 / chromaloc=0 / display-window=0 / max-cll=0,0 / min-luma=0 / max-luma=1023 / log2-max-poc-lsb=8 / vui-timing-info / vui-hrd-info / slices=1 / no-opt-qp-pps / no-opt-ref-list-length-pps / no-multi-pass-opt-rps / scenecut-bias=0.05 / no-opt-cu-delta-qp / aq-motion / no-hdr / no-hdr-opt / no-dhdr10-opt / no-idr-recovery-sei / analysis-reuse-level=5 / scale-factor=0 / refine-intra=0 / refine-inter=0 / refine-mv=0 / no-limit-sao / ctu-info=0 / no-lowpass-dct / refine-mv-type=0 / copy-pic=1 / max-ausize-factor=1.0 / no-dynamic-refine / no-single-sei
Default                                  : Yes
Forced                                   : No

Audio #1
ID                                       : 2
Format                                   : AC-3
Format/Info                              : Audio Coding 3
Codec ID                                 : A_AC3
Duration                                 : 1 h 26 min
Bit rate mode                            : Constant
Bit rate                                 : 192 kb/s
Channel(s)                               : 2 channels
Channel positions                        : Front: L R
Sampling rate                            : 48.0 kHz
Frame rate                               : 31.250 FPS (1536 SPF)
Bit depth                                : 16 bits
Compression mode                         : Lossy
Stream size                              : 119 MiB (4%)
Title                                    : 2.0 @ 192 kbps
Language                                 : Ukrainian
Service kind                             : Complete Main
Default                                  : Yes
Forced                                   : Yes

Audio #2
ID                                       : 3
Format                                   : AC-3
Format/Info                              : Audio Coding 3
Codec ID                                 : A_AC3
Duration                                 : 1 h 26 min
Bit rate mode                            : Constant
Bit rate                                 : 448 kb/s
Channel(s)                               : 6 channels
Channel positions                        : Front: L C R, Side: L R, LFE
Sampling rate                            : 48.0 kHz
Frame rate                               : 31.250 FPS (1536 SPF)
Bit depth                                : 16 bits
Compression mode                         : Lossy
Stream size                              : 277 MiB (10%)
Title                                    : 5.1 @ 448 kbps
Language                                 : English
Service kind                             : Complete Main
Default                                  : No
Forced                                   : No

Text #1
ID                                       : 4
Format                                   : UTF-8
Codec ID                                 : S_TEXT/UTF8
Codec ID/Info                            : UTF-8 Plain Text
Duration                                 : 1 h 13 min
Bit rate                                 : 0 b/s
Count of elements                        : 9
Stream size                              : 151 Bytes (0%)
Title                                    : Forced
Language                                 : Ukrainian
Default                                  : Yes
Forced                                   : Yes

Text #2
ID                                       : 5
Format                                   : UTF-8
Codec ID                                 : S_TEXT/UTF8
Codec ID/Info                            : UTF-8 Plain Text
Duration                                 : 1 h 25 min
Bit rate                                 : 93 b/s
Count of elements                        : 1129
Stream size                              : 58.3 KiB (0%)
Title                                    : Full
Language                                 : Ukrainian
Default                                  : No
Forced                                   : No

Text #3
ID                                       : 6
Format                                   : UTF-8
Codec ID                                 : S_TEXT/UTF8
Codec ID/Info                            : UTF-8 Plain Text
Duration                                 : 1 h 24 min
Bit rate                                 : 66 b/s
Count of elements                        : 1182
Stream size                              : 41.4 KiB (0%)
Title                                    : Full
Language                                 : English
Default                                  : No
Forced                                   : No

Text #4
ID                                       : 7
Format                                   : UTF-8
Codec ID                                 : S_TEXT/UTF8
Codec ID/Info                            : UTF-8 Plain Text
Duration                                 : 1 h 25 min
Bit rate                                 : 77 b/s
Count of elements                        : 1568
Stream size                              : 48.3 KiB (0%)
Title                                    : SDH
Language                                 : English
Default                                  : No
Forced                                   : No

Text #5
ID                                       : 8
Format                                   : VobSub
Muxing mode                              : zlib
Codec ID                                 : S_VOBSUB
Codec ID/Info                            : Picture based subtitle format used on DVDs
Duration                                 : 1 h 25 min
Bit rate                                 : 9 613 b/s
Count of elements                        : 1127
Stream size                              : 5.85 MiB (0%)
Title                                    : Full
Language                                 : French
Default                                  : No
Forced                                   : No

Text #6
ID                                       : 9
Format                                   : VobSub
Muxing mode                              : zlib
Codec ID                                 : S_VOBSUB
Codec ID/Info                            : Picture based subtitle format used on DVDs
Duration                                 : 1 h 25 min
Bit rate                                 : 11.9 kb/s
Count of elements                        : 1110
Stream size                              : 7.27 MiB (0%)
Title                                    : Full
Language                                 : German
Default                                  : No
Forced                                   : No

Menu
00:00:00.000                             : en:Chapter 01
00:05:36.127                             : en:Chapter 02
00:10:50.691                             : en:Chapter 03
00:16:40.624                             : en:Chapter 04
00:24:05.944                             : en:Chapter 05
00:29:44.073                             : en:Chapter 06
00:35:39.512                             : en:Chapter 07
00:40:52.908                             : en:Chapter 08
00:45:41.530                             : en:Chapter 09
00:52:31.982                             : en:Chapter 10
00:58:29.797                             : en:Chapter 11
01:04:58.519                             : en:Chapter 12
01:10:40.069                             : en:Chapter 13
01:16:02.933                             : en:Chapter 14
01:17:55.170                             : en:Chapter 15
Скріншоти



Підтримати купівлю інших фільмів можна тут.

Подяка пану AngryBirdsUA за доріжку.

Джерело:
Особиста оцінка: 0 - не дивився
ЗАЛИШАЙТЕСЬ ЯКОМОГА ДОВШЕ НА РОЗДАЧІ!
ЗАВАНТАЖИВ САМ - ДАЙ ЗАВАНТАЖИТИ ІНШИМ


 Трекер:    Зареєстрований   

Завантажити / скачати мультфільм українською



відео для новачків



 Зареєстрований:   2018-08-09 20:36
 Розмір:   2.68 GB 
 Оцінка мультфільму:   10/10 (Голосів: 2)
   
Інші релізи
Ваш часовий пояс: GMT + 2 Години

Нова тема   Відповісти