Срібна куля / Silver Bullet (1985) 720p Ukr/Eng | Sub Eng

Нові коментарі

Нова тема   Відповісти
Автор Повідомлення
staf777 
Відео Гуртом - підтримка та поширення
Відео Гуртом - підтримка та поширення


З нами з: 16.11.16
Востаннє: 09.12.19
Повідомлень: 3038

2018-08-09 10:02  
Срібна куля / Silver Bullet (1985) 720p Ukr/Eng | Sub Eng

Срібна куля / Silver Bullet (1985) 720p Ukr/Eng | Sub Eng


Жанр: екшн, драма, жахи, містика, трилер
Країна: США



Кінокомпанія: Dino De Laurentiis Company, Famous Films
Режисер: Деніел Еттіес / Daniel Attias
Актори: Ґері Б'юзі / Gary Busey, Еверет Маꥳлл / Everett McGill, Корі Гейм / Corey Haim, Меґан Фолловз / Megan Follows, Робін Ґровс / Robin Groves, Леон Рассом / Leon Russom та інші

Сюжет:
Містичний трилер, знятий по розповіді всесвітньо відомого письменника Стівена Кінґа "Цикл перевертня". Маленьке американське містечко охоплено страхом: ночами при повному місяці хтось по-звірячому вбиває його мешканців. Хтось покритий шерстю, таємничий та невловимий. Добровольці, що відправилися на пошуки вбивці, самі стають його жертвами. Лише тринадцятирічний Марті, прикований до інвалідної коляски, переконаний, що вбивства скоює перевертень, проти якого безсила будь-яка зброя, окрім срібної кулі…


Тривалість: 01:34:58
Якість: 720p
Відео:
кодек:
розмір кадру: 1280x544
бітрейт: 7290 кб/с

Аудіо # 1:
мова: українська
переклад: багатоголосий закадровий
кодек: 2.0
бітрейт: 192 кб/с

Аудіо # 2:
мова: англійська
переклад: оригінал
кодек: 5.1
бітрейт: 448 кб/с

Аудіо # 3:
мова: англійська
переклад: коментарі
кодек: 2.0
бітрейт: 192 кб/с

Джерело озвучення:


Субтитри:
мова: англійська
тип: програмні (м'які)
формат: *.srt
Info
General
Unique ID : 96831302188092401012303916333698023135 (0x48D907CB2A4D99EDDD0C2596E4D27EDF)
Complete name : G:\Майбутні релізи\Silver Bullet (1985) 720p [Ukr,Eng sub.Eng] [Hurtom].
Format :
Format version : Version 4 / Version 2
File size : 5.39 GiB
Duration : 1 h 34 min
Overall bit rate : 8 123 kb/s
Movie name : Silver Bullet (1985) 720p [Ukr,Eng sub.Eng] [Hurtom]
Encoded date : UTC 2018-08-09 07:30:06
Writing application : v24.0.0 ('Beyond The Pale') 64-bit
Writing library : libebml v1.3.6 + v1.4.9
Cover : Yes
Attachments : cover.jpg

Video
ID : 1
Format : AVC
Format/Info : Advanced Video Codec
Format profile : [email protected]
Format settings : CABAC / 12 Ref Frames
Format settings, CABAC : Yes
Format settings, ReFrames : 12 frames
Codec ID : V_MPEG4/ISO/AVC
Duration : 1 h 34 min
Bit rate : 7 290 kb/s
Width : 1 280 pixels
Height : 544 pixels
Display aspect ratio : 2.35:1
Frame rate mode : Constant
Frame rate : 23.976 (24000/1001) FPS
Color space : YUV
Chroma subsampling : 4:2:0
Bit depth : 8 bits
Scan type : Progressive
Bits/(Pixel*Frame) : 0.437
Stream size : 4.84 GiB (90%)
Title : Silver_Bullet
Writing library : core 148 r2638 7599210
Encoding settings : cabac=1 / ref=12 / deblock=1:-2:-2 / analyse=0x3:0x113 / me=umh / subme=11 / psy=1 / psy_rd=1.00:0.00 / mixed_ref=1 / me_range=48 / chroma_me=1 / trellis=2 / 8x8dct=1 / cqm=0 / deadzone=21,11 / fast_pskip=0 / chroma_qp_offset=-2 / threads=6 / lookahead_threads=1 / sliced_threads=0 / nr=0 / decimate=0 / interlaced=0 / bluray_compat=0 / constrained_intra=0 / bframes=16 / b_pyramid=2 / b_adapt=2 / b_bias=0 / direct=3 / weightb=1 / open_gop=0 / weightp=2 / keyint=250 / keyint_min=23 / scenecut=40 / intra_refresh=0 / rc_lookahead=60 / rc=2pass / mbtree=1 / bitrate=7290 / ratetol=1.0 / qcomp=0.60 / qpmin=0 / qpmax=69 / qpstep=4 / cplxblur=20.0 / qblur=0.5 / vbv_maxrate=50000 / vbv_bufsize=62500 / nal_hrd=none / filler=0 / ip_ratio=1.40 / aq=3:0.80
Language : English
Default : Yes
Forced : No
Color range : Limited
Color primaries : BT.709
Transfer characteristics : BT.709
Matrix coefficients : BT.709

Audio #1
ID : 2
Format : AC-3
Format/Info : Audio Coding 3
Codec ID : A_AC3
Duration : 1 h 34 min
Bit rate mode : Constant
Bit rate : 192 kb/s
Channel(s) : 2 channels
Channel positions : Front: L R
Sampling rate : 48.0 kHz
Frame rate : 31.250 FPS (1536 SPF)
Bit depth : 16 bits
Compression mode : Lossy
Stream size : 130 MiB (2%)
Title : MVO_НЛО-TV
Language : Ukrainian
Service kind : Complete Main
Default : Yes
Forced : Yes

Audio #2
ID : 3
Format : AC-3
Format/Info : Audio Coding 3
Codec ID : A_AC3
Duration : 1 h 34 min
Bit rate mode : Constant
Bit rate : 448 kb/s
Channel(s) : 2 channels
Channel positions : Front: L R
Sampling rate : 48.0 kHz
Frame rate : 31.250 FPS (1536 SPF)
Bit depth : 16 bits
Compression mode : Lossy
Stream size : 304 MiB (6%)
Title : ENG
Language : English
Service kind : Complete Main
Default : No
Forced : No

Audio #3
ID : 4
Format : AC-3
Format/Info : Audio Coding 3
Codec ID : A_AC3
Duration : 1 h 34 min
Bit rate mode : Constant
Bit rate : 192 kb/s
Channel(s) : 2 channels
Channel positions : Front: L R
Sampling rate : 48.0 kHz
Frame rate : 31.250 FPS (1536 SPF)
Bit depth : 16 bits
Compression mode : Lossy
Stream size : 130 MiB (2%)
Title : ENG_COM
Language : English
Service kind : Complete Main
Default : No
Forced : No

Text #1
ID : 5
Format : UTF-8
Codec ID : S_TEXT/UTF8
Codec ID/Info : UTF-8 Plain Text
Duration : 1 h 30 min
Bit rate : 44 b/s
Count of elements : 815
Stream size : 29.7 KiB (0%)
Title : Full
Language : English
Default : No
Forced : No

Text #2
ID : 6
Format : UTF-8
Codec ID : S_TEXT/UTF8
Codec ID/Info : UTF-8 Plain Text
Duration : 1 h 32 min
Bit rate : 35 b/s
Count of elements : 1074
Stream size : 24.1 KiB (0%)
Title : Full_SDH
Language : English
Default : No
Forced : No

Menu
00:00:00.000 : en:Chapter 01
00:04:18.508 : en:Chapter 02
00:11:29.105 : en:Chapter 03
00:15:12.536 : en:Chapter 04
00:18:11.590 : en:Chapter 05
00:25:30.278 : en:Chapter 06
00:32:56.015 : en:Chapter 07
00:37:34.919 : en:Chapter 08
00:45:16.171 : en:Chapter 09
00:52:53.295 : en:Chapter 10
00:57:51.676 : en:Chapter 11
01:07:50.524 : en:Chapter 12
01:14:14.950 : en:Chapter 13
01:20:02.672 : en:Chapter 14
01:24:06.124 : en:Chapter 15
01:32:26.123 : en:Chapter 16
01:34:57.692 : en:Chapter 17
Скріншоти




Подяки:
- п. slavik_v_z та п. POMEO за запис з ТБ

Джерело: &
Особиста оцінка: 8 - мені сподобалося


Срібний реліз (на рейтинг впливає 50% завантаженого)
 Трекер:    Зареєстрований   

Завантажити / скачати фільм українською



відео для новачків



 Зареєстрований:   2018-08-09 10:02
 Розмір:   5.39 GB 
 Оцінка фільму:   9.4/10 (Голосів: 13)
   
Інші релізи
   Срібна куля / Silver Bullet (1985) 1080p H.265 Ukr/Eng | Sub Eng -Star-Lord-  1 / 0   7.79 GB   2019-11-16 13:27 
   Срібна куля / Silver Bullet (1985) patriot2305  2 / 0   1.46 GB   2014-08-04 19:12 
hetzendorf 
Забанено
Забанено


З нами з: 23.07.15
Востаннє: 07.12.19
Повідомлень: 2585

2019-04-16 23:36  
Класний жахливчик, добре старе кіно!
Цікаво,
чи завжди Еверетт Мак-Ґілл у молодості грав монстрів?
8/10

+380954897458 
VIP


З нами з: 02.06.17
Востаннє: 08.12.19
Повідомлень: 527

2019-04-17 14:35  
hetzendorf
Ні, у Жан-Жака Анно він грав неандертальця, а у Клінта Іствуда військового.

hetzendorf 
Забанено
Забанено


З нами з: 23.07.15
Востаннє: 07.12.19
Повідомлень: 2585

2019-04-17 15:05  
+380954897458
У «Твін Піксі» цікавий натяк на його тутешнього персонажа ^__^

Ваш часовий пояс: GMT + 2 Години

Нова тема   Відповісти