Кінець світу / End of Days (1999) AVC 2хUkr/Eng | Sub Eng

Нові коментарі

Нова тема   Відповісти
Автор Повідомлення
staf777 
Відео Гуртом - підтримка та поширення
Відео Гуртом - підтримка та поширення


З нами з: 16.11.16
Востаннє: 04.12.19
Повідомлень: 3038

2018-08-08 20:56  
Кінець світу / End of Days (1999) AVC 2хUkr/Eng | Sub Eng

Кінець світу / End of Days (1999) AVC 2хUkr/Eng | Sub Eng

український постер

Кінець світу / End of Days (1999) AVC 2хUkr/Eng | Sub Eng


Жанр: бойовик, жахи, фентезі, трилер, детектив
Країна: США



Кінокомпанія: Universal Pictures, Beacon Communications
Режисер: Пітер Хайамс
Актори: Арнольд Шварценеґер (Arnold Schwarzenegger), Гебріел Бірн, Кевін Поллак, Робін Туні, Сі Сі Ейч Паундер, Род Стайгер, Дерік О'Коннор, Міріам Марголіс

Сюжет:
Її народження боялися століттями. З початку ери в своїх самотніх келіях відлюдники переписували слова страшного пророкування. В глибині часів зірки передбачили немовляті страшну долю: вона повинна стати нареченою самого Диявола. І в кінці тисячоліття Сатана повстане з пекла, щоб вступити з нещасною в страшний союз. Якщо це станеться, на землі настане царство Зла і людство назавжди зануриться в темряву.

Жахливе пророкування, в яке боялися повірити, збулося. Князь темряви вирвався з ув'язнення у пошуках своєї нареченої. Час обернув назад, відраховуючи миті до рокового фіналу. Але провісники не врахували одного — того, хто наважився встати на дорозі у всесильного Люцифера, щоб наодинці зупинити Апокаліпсис.


Тривалість: 02:02:18
Якість: AVC
Відео:
кодек:
розмір кадру: 1024x432
бітрейт: 1916 кб/с

Аудіо # 1:
мова: українська
переклад: багатоголосий закадровий
кодек: 5.1
бітрейт: 448 кб/с

Аудіо # 2:
мова: українська
переклад: двоголосий закадровий
кодек: 2.0
бітрейт: 192 кб/с

Аудіо # 3:
мова: англійська
переклад: оригінал
кодек: 5.1
бітрейт: 448 кб/с

Субтитри:
мова: англійська
тип: програмні (м'які)
формат: *.srt
Info
General
Unique ID : 56532336909516357604694007225618148737 (0x2A87BB677FCBE04AF210A7ABBB962D81)
Complete name : H:\» Українське озвучення » Фільми\End of Days (1999) AVC [Ukr,Eng sub.Eng] [Hurtom].
Format :
Format version : Version 4 / Version 2
File size : 2.57 GiB
Duration : 2 h 2 min
Overall bit rate : 3 005 kb/s
Movie name : End of Days (1999) AVC [Ukr,Eng sub.Eng] [Hurtom]
Encoded date : UTC 2018-08-08 17:57:37
Writing application : v24.0.0 ('Beyond The Pale') 64-bit
Writing library : libebml v1.3.6 + v1.4.9
Cover : Yes
Attachments : cover.jpg..jpg

Video
ID : 1
Format : AVC
Format/Info : Advanced Video Codec
Format profile : [email protected]
Format settings : CABAC / 9 Ref Frames
Format settings, CABAC : Yes
Format settings, ReFrames : 9 frames
Codec ID : V_MPEG4/ISO/AVC
Duration : 2 h 2 min
Bit rate : 1 916 kb/s
Width : 1 024 pixels
Height : 432 pixels
Display aspect ratio : 2.40:1
Frame rate mode : Constant
Frame rate : 23.976 (24000/1001) FPS
Color space : YUV
Chroma subsampling : 4:2:0
Bit depth : 8 bits
Scan type : Progressive
Bits/(Pixel*Frame) : 0.181
Stream size : 1.64 GiB (64%)
Writing library : core 142 r2431 ac76440
Encoding settings : cabac=1 / ref=9 / deblock=1:-2:-1 / analyse=0x3:0x113 / me=umh / subme=11 / psy=1 / psy_rd=1.05:0.00 / mixed_ref=1 / me_range=48 / chroma_me=1 / trellis=2 / 8x8dct=1 / cqm=0 / deadzone=21,11 / fast_pskip=0 / chroma_qp_offset=-2 / threads=12 / lookahead_threads=6 / sliced_threads=0 / nr=0 / decimate=0 / interlaced=0 / bluray_compat=0 / constrained_intra=0 / bframes=8 / b_pyramid=2 / b_adapt=2 / b_bias=0 / direct=3 / weightb=1 / open_gop=0 / weightp=2 / keyint=240 / keyint_min=23 / scenecut=40 / intra_refresh=0 / rc=2pass / mbtree=0 / bitrate=1916 / ratetol=1.0 / qcomp=0.65 / qpmin=0 / qpmax=69 / qpstep=4 / cplxblur=20.0 / qblur=0.5 / ip_ratio=1.40 / pb_ratio=1.30 / aq=1:0.90
Language : English
Default : Yes
Forced : No

Audio #1
ID : 2
Format : AC-3
Format/Info : Audio Coding 3
Codec ID : A_AC3
Duration : 2 h 2 min
Bit rate mode : Constant
Bit rate : 448 kb/s
Channel(s) : 6 channels
Channel positions : Front: L C R, Side: L R, LFE
Sampling rate : 48.0 kHz
Frame rate : 31.250 FPS (1536 SPF)
Bit depth : 16 bits
Compression mode : Lossy
Stream size : 392 MiB (15%)
Title : UA-MVO
Language : Ukrainian
Service kind : Complete Main
Default : Yes
Forced : Yes

Audio #2
ID : 3
Format : AC-3
Format/Info : Audio Coding 3
Codec ID : A_AC3
Duration : 2 h 2 min
Bit rate mode : Constant
Bit rate : 192 kb/s
Channel(s) : 2 channels
Channel positions : Front: L R
Sampling rate : 48.0 kHz
Frame rate : 31.250 FPS (1536 SPF)
Bit depth : 16 bits
Compression mode : Lossy
Stream size : 168 MiB (6%)
Title : UA-DVO
Language : Ukrainian
Service kind : Complete Main
Default : No
Forced : No

Audio #3
ID : 4
Format : AC-3
Format/Info : Audio Coding 3
Codec ID : A_AC3
Duration : 2 h 2 min
Bit rate mode : Constant
Bit rate : 448 kb/s
Channel(s) : 6 channels
Channel positions : Front: L C R, Side: L R, LFE
Sampling rate : 48.0 kHz
Frame rate : 31.250 FPS (1536 SPF)
Bit depth : 16 bits
Compression mode : Lossy
Stream size : 392 MiB (15%)
Language : English
Service kind : Complete Main
Default : No
Forced : No

Text
ID : 5
Format : UTF-8
Codec ID : S_TEXT/UTF8
Codec ID/Info : UTF-8 Plain Text
Duration : 1 h 52 min
Bit rate : 44 b/s
Count of elements : 1068
Stream size : 36.3 KiB (0%)
Language : English
Default : No
Forced : No

Menu
00:00:00.000 : en:Main Titles
00:03:07.354 : en:The Chosen One
00:08:17.664 : en:The Dark Angel
00:12:46.891 : en:Jericho
00:15:17.834 : en:To Kill a Devil
00:23:26.697 : en:The Priest's Secret
00:29:15.170 : en:He's Coming for You...
00:34:59.681 : en:Another World
00:41:32.031 : en:The Devil's Revenge
00:47:15.249 : en:Last Rites
00:57:13.764 : en:Hell Breaks Loose
01:04:03.882 : en:The Number of the Beast
01:09:08.186 : en:The Devil's Offer
01:21:47.778 : en:I've Come for My Bride
01:27:28.910 : en:The Last Day
01:33:31.606 : en:The Ceremony
01:38:54.303 : en:Subway to Hell
01:48:00.516 : en:The Devil Inside
01:52:27.282 : en:The Ultimate Sacrifice
01:55:57.951 : en:End Titles
Скріншоти




Джерело:
Особиста оцінка: 10 - без зайвих вагань рекомендую всім!


Срібний реліз (на рейтинг впливає 50% завантаженого)
 Трекер:    Зареєстрований   

Завантажити / скачати фільм українською



відео для новачків



 Зареєстрований:   2018-08-08 20:57
 Розмір:   2.57 GB 
 Оцінка фільму:   9.1/10 (Голосів: 10)
   
Інші релізи
bot 
робот


З нами з: 30.09.07
Востаннє: 26.05.05
Повідомлень: 22589

2018-08-08 20:57  
Тему перенесено з Анонси релізів до форуму Фільми


staf777

Ваш часовий пояс: GMT + 2 Години

Нова тема   Відповісти