Брудна гра / Play Dirty (1969) 1080p Ukr/Eng | Sub Eng

Нові коментарі

Нова тема   Відповісти
Автор Повідомлення
Anonymous 







2018-08-08 15:01  
Брудна гра / Play Dirty (1969) 1080p Ukr/Eng | Sub Eng

Брудна гра / Play Dirty (1969) 1080p Ukr/Eng | Sub Eng


Жанр: драма, пригоди, воєнний, військовий
Країна: Велика Британія



Кінокомпанія: Lowndes Productions Limited
Режисер: Андре Де Тот
Актори: Майкл Кейн, Найджел Девенпорт, Найджел Ґрін, Гаррі Ендрюс, Патрік Джордан, Деніел Пілон, Бріджет Еспіт

Сюжет:
Розпал Другої Світової Війни. Північна Африка. Під командуванням полковника англійської армії Мастерса знаходиться не зовсім звичайний загін - всі його члени в недалекому минулому вбивці і терористи, зібрані по тюрмах всього Середземномор'я. Бригадний генерал Блор, в чиєму підпорядкуванні знаходиться Мастерс, хоче розпустити загін. Мастерс вирішує використати останній шанс - операцію в глибокому тилу противника. Його підлеглі повинні заглибитися на територію, контрольовану німцями, майже на 400 миль і знищити склад пального, призначене для постачання танкової армії Роммеля...


Тривалість: 01:58:16
Якість: 1080p
Відео:
кодек:
розмір кадру: 1920х816
бітрейт: 8104 кб/с

Аудіо # 1:
мова: українська
переклад: багатоголосий закадровий
кодек: 2.0
бітрейт: 192 кб/с

Аудіо # 2:
мова: англійська
переклад: оригінал
кодек: 2.0
бітрейт: 1509 кб/с

Субтитри:
мова: англійська
тип: програмні (м'які)
формат: *.srt
Info
General
Unique ID : 183822412564866740297343216748999125137 (0x8A4AE8AC69CDD7628E754DCA1092A891)
Format :
Format version : Version 4 / Version 2
File size : 8.10 GiB
Duration : 1 h 58 min
Overall bit rate : 9 806 kb/s
Encoded date : UTC 2018-08-08 11:53:30
Writing application : v6.1.0 ('Old Devil') built on Mar 4 2013 09:10:42
Writing library : libebml v1.3.0 + v1.4.0

Video
ID : 1
Format : AVC
Format/Info : Advanced Video Codec
Format profile : [email protected]
Format settings : CABAC / 5 Ref Frames
Format settings, CABAC : Yes
Format settings, ReFrames : 5 frames
Codec ID : V_MPEG4/ISO/AVC
Duration : 1 h 58 min
Bit rate : 8 104 kb/s
Width : 1 920 pixels
Height : 816 pixels
Display aspect ratio : 2.35:1
Frame rate mode : Constant
Frame rate : 23.976 (23976/1000) FPS
Color space : YUV
Chroma subsampling : 4:2:0
Bit depth : 8 bits
Scan type : Progressive
Bits/(Pixel*Frame) : 0.216
Stream size : 6.53 GiB (81%)
Writing library : core 142 r2479 dd79a61
Encoding settings : cabac=1 / ref=5 / deblock=1:0:0 / analyse=0x3:0x133 / me=umh / subme=7 / psy=1 / psy_rd=1.00:0.00 / mixed_ref=1 / me_range=16 / chroma_me=1 / trellis=1 / 8x8dct=1 / cqm=0 / deadzone=21,11 / fast_pskip=0 / chroma_qp_offset=-2 / threads=12 / lookahead_threads=2 / sliced_threads=0 / nr=0 / decimate=1 / interlaced=0 / bluray_compat=0 / constrained_intra=0 / bframes=3 / b_pyramid=2 / b_adapt=2 / b_bias=0 / direct=3 / weightb=1 / open_gop=0 / weightp=2 / keyint=250 / keyint_min=23 / scenecut=40 / intra_refresh=0 / rc_lookahead=50 / rc=2pass / mbtree=1 / bitrate=8104 / ratetol=1.0 / qcomp=0.60 / qpmin=0 / qpmax=69 / qpstep=4 / cplxblur=20.0 / qblur=0.5 / ip_ratio=1.40 / aq=1:1.00
Language : English
Default : Yes
Forced : No
Statistics Tags Issue : v7.0.0 ('Where We Going') 32bit built on Jun 9 2014 15:08:34 2014-11-19 08:18:41 / v6.1.0 ('Old Devil') built on Mar 4 2013 09:10:42 2018-08-08 11:53:30
FromStats_BitRate : 8104712
FromStats_Duration : 01:58:14.629000000
FromStats_FrameCount : 170101
FromStats_StreamSize : 7187491005

Audio #1
ID : 2
Format : AC-3
Format/Info : Audio Coding 3
Codec ID : A_AC3
Duration : 1 h 58 min
Bit rate mode : Constant
Bit rate : 192 kb/s
Channel(s) : 2 channels
Channel positions : Front: L R
Sampling rate : 48.0 kHz
Frame rate : 31.250 FPS (1536 SPF)
Bit depth : 16 bits
Compression mode : Lossy
Stream size : 162 MiB (2%)
Title : UKR (AMC)
Language : Ukrainian
Service kind : Complete Main
Default : Yes
Forced : Yes

Audio #2
ID : 3
Format :
Format/Info : Digital Theater Systems
Codec ID : A_DTS
Duration : 1 h 58 min
Bit rate mode : Constant
Bit rate : 1 509 kb/s
Channel(s) : 2 channels
Channel positions : Front: L R
Sampling rate : 48.0 kHz
Frame rate : 93.750 FPS (512 SPF)
Bit depth : 24 bits
Compression mode : Lossy
Stream size : 1.25 GiB (15%)
Title : ENG
Language : English
Default : No
Forced : No
Statistics Tags Issue : v7.0.0 ('Where We Going') 32bit built on Jun 9 2014 15:08:34 2014-11-19 08:18:41 / v6.1.0 ('Old Devil') built on Mar 4 2013 09:10:42 2018-08-08 11:53:30
FromStats_BitRate : 1508999
FromStats_Duration : 01:58:15.030000000
FromStats_FrameCount : 665159
FromStats_StreamSize : 1338299908

Text
ID : 4
Format : UTF-8
Codec ID : S_TEXT/UTF8
Codec ID/Info : UTF-8 Plain Text
Title : ENG
Language : English
Default : Yes
Forced : No

Menu
00:00:00.000 : en:00:00:00.000
00:12:21.074 : en:00:12:21.074
00:23:52.514 : en:00:23:52.514
00:38:39.984 : en:00:38:39.984
00:57:14.181 : en:00:57:14.181
01:12:47.196 : en:01:12:47.196
01:26:14.294 : en:01:26:14.294
01:40:49.669 : en:01:40:49.669
Скріншоти








За українську доріжку подяка пану Sando7
Особиста подяка пану denixx за надану матеріальну допомогу на підтримку цього і майбутніх релізів.
Джерело:


Срібний реліз (на рейтинг впливає 50% завантаженого)
 Трекер:    Зареєстрований   

Завантажити / скачати фільм українською



відео для новачків



 Зареєстрований:   2018-08-08 15:01
 Розмір:   8.1 GB 
 Оцінка фільму:   10/10 (Голосів: 5)
   
Інші релізи
   Брудна гра / Play Dirty (1969) sokeel  1 / 0   798 MB   2016-11-11 14:25 
   Брудна гра / Play Dirty (1969) Ukr/Eng Sando7  4 / 0   1.46 GB   2016-11-05 17:53 
+380954897458 
Свій


З нами з: 02.06.17
Востаннє: 17.10.18
Повідомлень: 73

2018-09-03 14:25  
Як же я люблю жанрові фільми тих часів!
Ваш часовий пояс: GMT + 2 Години

Нова тема   Відповісти